Architecture Australia – September-October 2018 | Bad Banks | Sporting Bet
[Login] or [Signup]
Login
Username:
Password:
[Signup]
[Recover Account]


Poll


You must be logged in to view polls



Torrent Details For " Kanamachi (2013) Bengali Movie - 2CD - HDTV Rip[x264 - AC3(5.1Ch)]"

Kanamachi (2013) Bengali Movie - 2CD - HDTV Rip[x264 - AC3(5.1Ch)]

Download this torrent | Magnet Download
Health:
Seeds: 42
Leechers: 46
Completed: 66 
Last Checked: 25-09-2018 15:42:48
External Torrent
Update Stats
Download Magnet


Poster


iMDB
Title: Kanamachi
Year: 2013
Runtime: 160 minutes
Votes: 252
Rating: 6.8/10
Language: Bengali
All Genres: Action, Drama, Romance
Director: Raj Chakraborty
Writing By: Abhimanyu Mukherjee,
Produced By: Biplab Das,Ashok Kumar Dhanuka,Himanshu Dhanuka,Swapan Kumar Ghosh,Kapil Sharma,
Music: Indraadip Dasgupta Rishi
Cast:
Abir Chatterjee as Abhimanyu Mukherjee
Ankush Hazra as Abir
Srabanti Chatterjee as Nayana
Saayoni Ghosh as Payel
Rajatabha Dutta as CM
Supriyo Dutta as Corrupt politician
Shankar Chakraborty as Newspaper editor
Santilal Mukherjee as Terrorist
Prasun Gayen as
Pradip Dhar as


Watch-Free-HD     Download

Details
Name: Kanamachi (2013) Bengali Movie - 2CD - HDTV Rip[x264 - AC3(5.1Ch)]
Description:
          Kanamachi (2013) Bengali Movie - 2CD -
HDTV Rip[x264 - AC3(5.1Ch)]    
 







General
Format                                   : Matroska
Format version                           : Version 4
File size                                : 1.40 GiB
Duration                                 : 2 h 42 min

Video
ID                                       : 1
Format                                   : AVC
Format/Info                              : Advanced Video Codec
Format profile                           : [email protected]
Format settings                          : CABAC / 4 Ref Frames
Format settings, CABAC                   : Yes
Format settings, RefFrames               : 4 frames
Codec ID                                 : V_MPEG4/ISO/AVC
Duration                                 : 2 h 42 min
Bit rate                                 : 1 043 kb/s
Width                                    : 720 pixels
Height                                   : 304 pixels
Display aspect ratio                     : 2.35:1
Frame rate mode                          : Constant
Frame rate                               : 25.000 FPS
Color space                              : YUV
Chroma subsampling                       : 4:2:0
Bit depth                                : 8 bits
Scan type                                : Progressive
Bits/(Pixel*Frame)                       : 0.191
Stream size                              : 1.18 GiB (84%)

Audio
ID                                       : 2
Format                                   : AC-3
Format/Info                              : Audio Coding 3
Commercial name                          : Dolby Digital
Codec ID                                 : A_AC3
Duration                                 : 2 h 42 min
Bit rate mode                            : Constant
Bit rate                                 : 192 kb/s
Channel(s)                               : 6 channels
Channel layout                           : L R C LFE Ls Rs
Sampling rate                            : 48.0 kHz
Stream size                              : 223 MiB (16%)



  Thumbnail  






Category:Movies > Bengali
Lang:Bengali  Bengali
Total Size:1.40 GB
Info Hash:293b19cc2612562c67301de27145f7ab4f0e75e1
Added By:CyberTron
Date Added:24-09-2018 05:48:24
Views:211
Hits:15

Download Torrent

Ratings:Not Yet Rated (Log in to rate it)

  


Tracker:
udp://tracker.trackerfix.com:80/announce


File List: 


Comments

No comments still posted

Powered by 10 Hamsters v2-svn -|- Page Generated In 2.182264 secs.
-|- RSS FEED
Theme By: Nikkbu