Virtual Microscope | Rebecca Shoichet | Ultimate - Vidéos Photos à la TV
[Login] or [Signup]
Login
Username:
Password:
[Signup]
[Recover Account]


Poll


You must be logged in to view polls



Torrent Details For "Asche Bochor Abar Hobe Movie (2015) Bengali Movie - 1CD - HDRip[x264 - AAC3(5.1Ch)]"

Asche Bochor Abar Hobe Movie (2015) Bengali Movie - 1CD - HDRip[x264 - AAC3(5.1Ch)]

Download this torrent | Magnet Download
Health:
Seeds: 50
Leechers: 50
Completed: 69 
Last Checked: 22-09-2018 09:33:57
External Torrent
Update Stats
Download Magnet


Poster


Watch-Free-HD     Download

Details
Name:Asche Bochor Abar Hobe Movie (2015) Bengali Movie - 1CD - HDRip[x264 - AAC3(5.1Ch)]
Description:
Asche Bochor Abar Hobe Movie (2015) Bengali Movie -
1CD - HDRip[x264 - AAC3(5.1Ch)]
 










General
Format                                   : Matroska
Format version                           : Version 4
File size                                : 700 MiB
Duration                                 : 2 h 25 min

Video
ID                                       : 1
Format                                   : AVC
Format/Info                              : Advanced Video Codec
Format profile                           : [email protected]
Format settings                          : CABAC / 4 Ref Frames
Format settings, CABAC                   : Yes
Format settings, RefFrames               : 4 frames
Codec ID                                 : V_MPEG4/ISO/AVC
Duration                                 : 2 h 25 min
Bit rate                                 : 544 kb/s
Width                                    : 640 pixels
Height                                   : 272 pixels
Display aspect ratio                     : 2.35:1
Frame rate mode                          : Constant
Frame rate                               : 25.000 FPS
Color space                              : YUV
Chroma subsampling                       : 4:2:0
Bit depth                                : 8 bits
Scan type                                : Progressive
Bits/(Pixel*Frame)                       : 0.125
Stream size                              : 565 MiB (81%)

Audio
ID                                       : 2
Format                                   : AAC LC SBR
Commercial name                          : HE-AAC
Format settings                          : Explicit
Codec ID                                 : A_AAC-2
Duration                                 : 2 h 25 min
Bit rate                                 : 128 kb/s
Channel(s)                               : 6 channels
Channel layout                           : C L R Ls Rs LFE
Sampling rate                            : 48.0 kHz
Stream size                              : 133 MiB (19%)


Thumbnail





Category:Movies > Bengali
Lang:Bengali  Bengali
Total Size:700.30 MB
Info Hash:e9c8494ac5bfb4504d073632417d8e10823649ec
Added By:CyberTron
Date Added:21-09-2018 15:01:39
Views:372
Hits:20

Download Torrent

Ratings:Not Yet Rated (Log in to rate it)

  


Tracker:
udp://tracker.trackerfix.com:80/announce


File List: 


Comments

No comments still posted

Powered by 10 Hamsters v2-svn -|- Page Generated In 0.897821 secs.
-|- RSS FEED
Theme By: Nikkbu