All The Shows In The World | my scis stepmom | Soorma 2018 Hindi 1080p NF WEB-DL DD 5 1 x264 ESub [MW]
[Login] or [Signup]
Login
Username:
Password:
[Signup]
[Recover Account]


Poll


You must be logged in to view polls



Torrent Details For " Hercules (2014) Bengali Movie - 1CD - HDRip[x264 - AAC3(5.1Ch)]"

Hercules (2014) Bengali Movie - 1CD - HDRip[x264 - AAC3(5.1Ch)]

Download this torrent | Magnet Download
Health:
Seeds: 15
Leechers: 33
Completed: 23 
Last Checked: 23-09-2018 14:38:42
External Torrent
Update Stats
Download Magnet


Poster


iMDB
Imdb Picture Title: Hercules
Year: 2014
Runtime: 112 minutes
Votes: 60
Rating: 6.1/10
Language: Bengali
Country: India
All Genres: Comedy
Plot Outline: Hercules is the story of a common man: His actual name is Harakailash, his timid nature and compromising attitude has prompted the local people to call him Hercules in jest.


Director: Abhijit Guha
Sudeshna Roy
Writing By: Padmanabha Dasgupta,
Produced By: Shyamsundar Dey,Arijit Dutta,
Music: Neel Dutt
Cast:
Biswajit Chakraborty as Bajoria
Parambrata Chatterjee as Haru
Saswata Chatterjee as Mosh
Paoli Dam as Meenu


Watch-Free-HD     Download

Details
Name: Hercules (2014) Bengali Movie - 1CD - HDRip[x264 - AAC3(5.1Ch)]
Description:
      Hercules (2014) Bengali Movie -
1CD - HDRip[x264 - AAC3(5.1Ch)]      
 






General
Format                                   : Matroska
Format version                           : Version 4
File size                                : 700 MiB
Duration                                 : 2 h 13 min

Video
ID                                       : 1
Format                                   : AVC
Format/Info                              : Advanced Video Codec
Format profile                           : [email protected]
Format settings                          : CABAC / 4 Ref Frames
Format settings, CABAC                   : Yes
Format settings, RefFrames               : 4 frames
Codec ID                                 : V_MPEG4/ISO/AVC
Duration                                 : 2 h 13 min
Bit rate                                 : 605 kb/s
Width                                    : 640 pixels
Height                                   : 272 pixels
Display aspect ratio                     : 2.35:1
Frame rate mode                          : Constant
Frame rate                               : 25.000 FPS
Color space                              : YUV
Chroma subsampling                       : 4:2:0
Bit depth                                : 8 bits
Scan type                                : Progressive
Bits/(Pixel*Frame)                       : 0.139
Stream size                              : 576 MiB (82%)

Audio
ID                                       : 2
Format                                   : AAC LC SBR
Commercial name                          : HE-AAC
Format settings                          : Explicit
Codec ID                                 : A_AAC-2
Duration                                 : 2 h 13 min
Bit rate                                 : 128 kb/s
Channel(s)                               : 6 channels
Channel layout                           : C L R Ls Rs LFE
Sampling rate                            : 48.0 kHz
Stream size                              : 122 MiB (17%)


Thumbnail






Category:Movies > Bengali
Lang:Bengali  Bengali
Total Size:700.19 MB
Info Hash:8847684b544615a491c1e6ea7953432f4461be2a
Added By:CyberTron
Date Added:21-09-2018 07:30:28
Views:243
Hits:24

Download Torrent

Ratings:Not Yet Rated (Log in to rate it)

  


Tracker:
udp://tracker.trackerfix.com:80/announce


File List: 


Comments

No comments still posted

Powered by 10 Hamsters v2-svn -|- Page Generated In 1.887582 secs.
-|- RSS FEED
Theme By: Nikkbu