Watch Movie | Hajime no Ippo | ↳ Pokec o mobilních zařízeních
[Login] or [Signup]
Login
Username:
Password:
[Signup]
[Recover Account]


Poll


You must be logged in to view polls



Torrent Details For "Mission Impossible - Fallout (2018) 720p HDCAM [Dual Audio]-[Hindi (Cleaned) + English]- 900MB ..."

Mission Impossible - Fallout (2018) 720p HDCAM [Dual Audio]-[Hindi (Cleaned) + English]- 900MB ...

Download this torrent | Magnet Download
Health:
Seeds: 2,052
Leechers: 370
Completed: 60,740 
Last Checked: 11-08-2018 17:10:59
External Torrent
Update Stats
Download Magnet


Poster


iMDB
Imdb Picture Title: Mission: Impossible - Fallout
Year: 2018
Runtime: 147 minutes
Votes: 5275
Rating: 8.9/10
Language: English, French
Country: USA
All Genres: Action, Adventure, Thriller
Plot Outline: Ethan Hunt and his IMF team, along with some familiar allies, race against time after a mission gone wrong.


Tagline: Some missions are not a choice.
Director: Christopher McQuarrie
Writing By: Christopher McQuarrie,Bruce Geller,
Produced By: J.J. Abrams,Raphaël Benoliel,Per Henry Borch,Tom Cruise,David Ellison,Dana Goldberg,Tommy Gormley,Don Granger,Christopher McQuarrie,Jake Myers,
Music: Lorne Balfe
Cast:
Tom Cruise as Ethan Hunt
Henry Cavill as August Walker
Ving Rhames as Luther Stickell
Simon Pegg as Benji Dunn
Rebecca Ferguson as Ilsa Faust
Sean Harris as Solomon Lane
Angela Bassett as Erica Sloan
Vanessa Kirby as White Widow
Michelle Monaghan as Julia Meade-Hunt
Wes Bentley as Patrick
Trailers:
Official Trailer #2
Official Trailer


Watch-Free-HD     Download

Details
Name:Mission Impossible - Fallout (2018) 720p HDCAM [Dual Audio]-[Hindi (Cleaned) + English]- 900MB ...
Description:
Visit Our Site   www.movcr.com

For Direct Download Links Visit Our SIte


High Speed Seeding....Enjoy



Mission Impossible - Fallout (2018) 720p HDCAM [Dual Audio]-[Hindi (Cleaned) + English]- 900MB [MovCr]



 http://www.imdb.com/title/tt4912910/

 

General
Unique ID                                : 176285346927807591039333540773080159836 (0x849F52A5ACBAE0E558A69C1B7429565C)
Complete name                            : www.MovCr.com - Mission Impossible - Fallout (2018) 720p HDCAM [Dual Audio]-[Hindi (Cleaned) + English]- 900MB [MovCr].mkv
Format                                   : Matroska
Format version                           : Version 4 / Version 2
File size                                : 894 MiB
Duration                                 : 2 h 17 min
Overall bit rate mode                    : Variable
Overall bit rate                         : 909 kb/s
Movie name                               : www.MovCr.com
Encoded date                             : UTC 2018-07-27 12:48:48
Writing application                      : mkvmerge v23.0.0 ('The Bride Said No') 64-bit
Writing library                          : libebml v1.3.6 + libmatroska v1.4.9

Video
ID                                       : 1
Format                                   : AVC
Format/Info                              : Advanced Video Codec
Format profile                           : [email protected]
Format settings                          : CABAC / 4 Ref Frames
Format settings, CABAC                   : Yes
Format settings, RefFrames               : 4 frames
Codec ID                                 : V_MPEG4/ISO/AVC
Duration                                 : 2 h 17 min
Bit rate                                 : 646 kb/s
Width                                    : 1 264 pixels
Height                                   : 600 pixels
Display aspect ratio                     : 2.107
Frame rate mode                          : Constant
Frame rate                               : 29.970 (30000/1001) FPS
Color space                              : YUV
Chroma subsampling                       : 4:2:0
Bit depth                                : 8 bits
Scan type                                : Progressive
Bits/(Pixel*Frame)                       : 0.028
Stream size                              : 635 MiB (71%)
Title                                    : www.MovCr.com
Writing library                          : x264 core 155 r2901 7d0ff22
Encoding settings                        : cabac=1 / ref=3 / deblock=1:0:0 / analyse=0x3:0x113 / me=hex / subme=7 / psy=1 / psy_rd=1.00:0.00 / mixed_ref=1 / me_range=16 / chroma_me=1 / trellis=1 / 8x8dct=1 / cqm=0 / deadzone=21,11 / fast_pskip=1 / chroma_qp_offset=-2 / threads=19 / lookahead_threads=3 / sliced_threads=0 / nr=0 / decimate=1 / interlaced=0 / bluray_compat=0 / constrained_intra=0 / bframes=3 / b_pyramid=2 / b_adapt=1 / b_bias=0 / direct=1 / weightb=1 / open_gop=0 / weightp=2 / keyint=300 / keyint_min=29 / scenecut=40 / intra_refresh=0 / rc_lookahead=40 / rc=2pass / mbtree=1 / bitrate=646 / ratetol=1.0 / qcomp=0.60 / qpmin=0 / qpmax=69 / qpstep=4 / cplxblur=20.0 / qblur=0.5 / ip_ratio=1.40 / aq=1:1.00
Language                                 : English
Default                                  : Yes
Forced                                   : No

Audio #1
ID                                       : 2
Format                                   : MPEG Audio
Format version                           : Version 1
Format profile                           : Layer 3
Format settings                          : Joint stereo / MS Stereo
Codec ID                                 : A_MPEG/L3
Codec ID/Hint                            : MP3
Duration                                 : 2 h 17 min
Bit rate mode                            : Variable
Bit rate                                 : 96.0 kb/s
Channel(s)                               : 2 channels
Sampling rate                            : 48.0 kHz
Frame rate                               : 41.667 FPS (1152 SPF)
Compression mode                         : Lossy
Stream size                              : 98.8 MiB (11%)
Title                                    : www.MovCr.com
Writing library                          : LAME3.99r
Encoding settings                        : -m j -V 4 -q 3 -lowpass 15.1 --abr 96
Language                                 : English
Default                                  : No
Forced                                   : No

Audio #2
ID                                       : 3
Format                                   : MPEG Audio
Format version                           : Version 1
Format profile                           : Layer 3
Format settings                          : Joint stereo / MS Stereo
Codec ID                                 : A_MPEG/L3
Codec ID/Hint                            : MP3
Duration                                 : 2 h 17 min
Bit rate mode                            : Constant
Bit rate                                 : 160 kb/s
Channel(s)                               : 2 channels
Sampling rate                            : 48.0 kHz
Frame rate                               : 41.667 FPS (1152 SPF)
Compression mode                         : Lossy
Stream size                              : 157 MiB (18%)
Title                                    : www.MovCr.com
Writing library                          : LAME3.98.2
Default                                  : Yes
Forced                                   : Yes




 
 
 
 
 
 
Category:Movies > Hollywood Dub
Lang:Hindi
Total Size:894.34 MB
Info Hash:e8864e340cd1a5cc1c3beac1fb7c699bbeb174a5
Added By:MAZE
Date Added:27-07-2018 13:56:22
Views:7,360
Hits:1,212

Download Torrent

Ratings:Not Yet Rated (Log in to rate it)


Tracker:
udp://tracker.coppersurfer.tk:6969/announce


File List: 


Comments

No comments still posted

Powered by 10 Hamsters v2-svn -|- Page Generated In 1.032296 secs.
-|- RSS FEED
Theme By: Nikkbu