Dashing Detective (Thupparivaalan) 2018 720p Hindi Dubbed HD x264 Mysskin has taken the essence and given us an Indian version of Sherlock Holmes. He has truly stuck to the core of Sherlock and produced one of the best thriller in Tamil movie. Vishal has excelled in his role. The background score , the fight sequence is top notch. | Vikings - Season 4 | Watch Movie
[Login] or [Signup]
Login
Username:
Password:
[Signup]
[Recover Account]


Poll


You must be logged in to view polls



Torrent Details For "Truth or Dare 2018 1080p BluRay x264 DTS [MW]"

Truth or Dare 2018 1080p BluRay x264 DTS [MW]

Download this torrent | Magnet Download
Health:
Seeds: 43
Leechers: 183
Completed: 84 
Last Checked: 12-07-2018 22:59:57
External Torrent
Update Stats
Download Magnet


Poster
No poster


Watch-Free-HD     Download

Details
Name:Truth or Dare 2018 1080p BluRay x264 DTS [MW]
Description:


 


General
Format : Matroska
Format version : Version 4 / Version 2
File size : 3.02 GiB
Duration : 1 h 40 min
Overall bit rate : 4 302 kb/s

Video
ID : 1
Format : AVC
Format/Info : Advanced Video Codec
Format profile : [email protected]
Format settings : CABAC / 4 Ref Frames
Format settings, CABAC : Yes
Format settings, RefFrames : 4 frames
Codec ID : V_MPEG4/ISO/AVC
Duration : 1 h 40 min
Bit rate : 2 800 kb/s
Width : 1 920 pixels
Height : 804 pixels
Display aspect ratio : 2.40:1
Frame rate mode : Constant
Frame rate : 23.976 (24000/1001) FPS
Color space : YUV
Chroma subsampling : 4:2:0
Bit depth : 8 bits
Scan type : Progressive
Bits/(Pixel*Frame) : 0.076
Stream size : 1.94 GiB (64%)
Writing library : x264 core 155 r2901 7d0ff22
Default : Yes
Forced : No

Audio
ID : 2
Format : DTS
Format/Info : Digital Theater Systems
Codec ID : A_DTS
Duration : 1 h 40 min
Bit rate mode : Constant
Bit rate : 1 509 kb/s
Channel(s) : 6 channels
Channel positions : Front: L C R, Side: L R, LFE
Sampling rate : 48.0 kHz
Frame rate : 93.750 FPS (512 SPF)
Bit depth : 24 bits
Compression mode : Lossy
Stream size : 1.06 GiB (35%)
Language : English
Default : Yes
Forced : No

Text #1
ID : 3
Format : VobSub
Muxing mode : zlib
Codec ID : S_VOBSUB
Codec ID/Info : Picture based subtitle format used on DVDs
Duration : 1 h 40 min
Bit rate : 14.3 kb/s
Count of elements : 2218
Stream size : 10.3 MiB (0%)
Language : English
Default : Yes
Forced : No

Text #2
ID : 4
Format : VobSub
Muxing mode : zlib
Codec ID : S_VOBSUB
Codec ID/Info : Picture based subtitle format used on DVDs
Duration : 1 h 39 min
Bit rate : 7 166 b/s
Count of elements : 1725
Stream size : 5.11 MiB (0%)
Language : English
Default : No
Forced : No

Menu
00:00:00.000 : en:00:00:00.000
00:02:30.150 : en:00:02:30.150
00:10:48.064 : en:00:10:48.064
00:14:14.395 : en:00:14:14.395
00:20:26.475 : en:00:20:26.475
00:25:15.305 : en:00:25:15.305
00:29:19.716 : en:00:29:19.716
00:34:52.799 : en:00:34:52.799
00:41:21.104 : en:00:41:21.104
00:45:27.934 : en:00:45:27.933
00:48:32.535 : en:00:48:32.534
00:54:41.695 : en:00:54:41.695
00:58:25.419 : en:00:58:25.418
01:05:52.657 : en:01:05:52.657
01:10:03.116 : en:01:10:03.115
01:15:45.958 : en:01:15:45.958
01:21:58.247 : en:01:21:58.246
01:28:25.217 : en:01:28:25.216
01:31:46.001 : en:01:31:46.000
01:37:55.745 : en:01:37:55.745


Click To Enlarge Image

 
 
 
 
 
 
 

Category:Movies > 1080P Bluray
Lang:English  English
Total Size:3.02 GB
Info Hash:93ccb20dbd5a350a8e547703f952f61743892924
Added By:Freaky
Date Added:12-07-2018 22:59:15
Views:401
Hits:29

Download Torrent

Ratings:Not Yet Rated (Log in to rate it)


Tracker:
udp://tracker.coppersurfer.tk:6969/announce


File List: 


Comments

No comments still posted

Powered by 10 Hamsters v2-svn -|- Page Generated In 4.150058 secs.
-|- RSS FEED
Theme By: Nikkbu