Chapter 237 | Raleigh, NC | The Endless 2017 1080p BluRay REMUX AVC DTS-HD MA 5.1-FGT
[Login] or [Signup]
Login
Username:
Password:
[Signup]
[Recover Account]


Poll


You must be logged in to view polls



Torrent Details For "Disobedience 2017 1080p BluRay x264 DTS [MW]"

Disobedience 2017 1080p BluRay x264 DTS [MW]

Download this torrent | Magnet Download
Health:
Seeds: 31
Leechers: 98
Completed: 33 
Last Checked: 12-07-2018 22:56:25
External Torrent
Update Stats
Download Magnet


Poster
No poster


Watch-Free-HD     Download

Details
Name:Disobedience 2017 1080p BluRay x264 DTS [MW]
Description:

 


General
Format                                   : Matroska
Format version                           : Version 4 / Version 2
File size                                : 2.96 GiB
Duration                                 : 1 h 54 min
Overall bit rate                         : 3 692 kb/s

Video
ID                                       : 1
Format                                   : AVC
Format/Info                              : Advanced Video Codec
Format profile                           : [email protected]
Format settings                          : CABAC / 4 Ref Frames
Format settings, CABAC                   : Yes
Format settings, RefFrames               : 4 frames
Codec ID                                 : V_MPEG4/ISO/AVC
Duration                                 : 1 h 54 min
Bit rate                                 : 2 200 kb/s
Width                                    : 1 920 pixels
Height                                   : 804 pixels
Display aspect ratio                     : 2.40:1
Frame rate mode                          : Constant
Frame rate                               : 23.976 (24000/1001) FPS
Color space                              : YUV
Chroma subsampling                       : 4:2:0
Bit depth                                : 8 bits
Scan type                                : Progressive
Bits/(Pixel*Frame)                       : 0.059
Stream size                              : 1.74 GiB (59%)
Writing library                          : x264 core 155 r2901 7d0ff22
Default                                  : Yes
Forced                                   : No

Audio
ID                                       : 2
Format                                   : DTS
Format/Info                              : Digital Theater Systems
Codec ID                                 : A_DTS
Duration                                 : 1 h 54 min
Bit rate mode                            : Constant
Bit rate                                 : 1 509 kb/s
Channel(s)                               : 6 channels
Channel positions                        : Front: L C R, Side: L R, LFE
Sampling rate                            : 48.0 kHz
Frame rate                               : 93.750 FPS (512 SPF)
Bit depth                                : 24 bits
Compression mode                         : Lossy
Stream size                              : 1.21 GiB (41%)
Language                                 : English
Default                                  : Yes
Forced                                   : No

Text
ID                                       : 3
Format                                   : VobSub
Muxing mode                              : zlib
Codec ID                                 : S_VOBSUB
Codec ID/Info                            : Picture based subtitle format used on DVDs
Duration                                 : 1 h 51 min
Bit rate                                 : 3 354 b/s
Count of elements                        : 1053
Stream size                              : 2.68 MiB (0%)
Language                                 : English
Default                                  : Yes
Forced                                   : No

Menu
00:00:00.000                             : en:00:00:00.000
00:03:43.014                             : en:00:03:43.014
00:09:09.591                             : en:00:09:09.591
00:16:38.998                             : en:00:16:38.998
00:21:25.618                             : en:00:21:25.618
00:25:31.655                             : en:00:25:31.655
00:28:41.303                             : en:00:28:41.303
00:36:43.785                             : en:00:36:43.785
00:41:19.894                             : en:00:41:19.894
00:50:03.375                             : en:00:50:03.375
00:57:51.093                             : en:00:57:51.093
01:02:46.179                             : en:01:02:46.179
01:10:34.230                             : en:01:10:34.230
01:17:28.727                             : en:01:17:28.727
01:20:28.949                             : en:01:20:28.949
01:25:35.339                             : en:01:25:35.339
01:31:59.472                             : en:01:31:59.472
01:37:21.711                             : en:01:37:21.711
01:44:02.820                             : en:01:44:02.820
01:49:47.331                             : en:01:49:47.247


Click To Enlarge Image

 
 
 
 
 
 
 

Category:Movies > 1080P Bluray
Lang:English  English
Total Size:2.96 GB
Info Hash:584600d34e309de49771a895e05870ba453bd45b
Added By:Freaky
Date Added:12-07-2018 22:56:01
Views:166
Hits:4

Download Torrent

Ratings:Not Yet Rated (Log in to rate it)


Tracker:
udp://tracker.coppersurfer.tk:6969/announce


File List: 


Comments

No comments still posted

Powered by 10 Hamsters v2-svn -|- Page Generated In 0.831064 secs.
-|- RSS FEED
Theme By: Nikkbu