Miami Medical | Nick Pearse | Cookies Policy
[Login] or [Signup]
Login
Username:
Password:
[Signup]
[Recover Account]


Poll


You must be logged in to view polls



Torrent Details For "Escape Plan 2 Hades (2018) 720p BRRip x264 ESubs Multi Line Auds-[Hindi + Telugu + Eng] 1GB [M..."

Escape Plan 2 Hades (2018) 720p BRRip x264 ESubs Multi Line Auds-[Hindi + Telugu + Eng] 1GB [M...

Download this torrent | Magnet Download
Health:
Seeds: 809
Leechers: 2,453
Completed: 701 
Last Checked: 09-07-2018 20:06:24
External Torrent
Update Stats
Download Magnet


Poster


iMDB
Imdb Picture Title: Escape Plan 2: Hades
Year: 2018
Runtime: 93 minutes
Votes: 18
Rating: 7.3/10
Language: English
Country: China, USA
All Genres: Action, Thriller
Plot Outline: Ray Breslin manages an elite team of security specialists trained in the art of breaking people out of the world's most impenetrable prisons. When his most trusted operative, Shu Ren, is kidnapped and disappears inside the most elaborate prison ever built, entirely computerized and constantly changing shape, Ray must track him down with the help of some of his former friends.


Director: Steven C. Miller
Writing By: Miles Chapman,
Produced By: Montgomery Blencowe,Alexander Boies,Robbie Brenner,Barry Brooker,Alastair Burlingham,Mark Canton,Alana Crow,Charlie Dombek,Alexander Eckert,Babak Eftekhari,Randall Emmett,Ted Fox,George Furla,Jon Galanis,Thomas A. Giovine,Wayne Marc Godfrey,Jonathan Helmuth,Qiu Jie,Robert Jones,Corey Large,Ron Lynch,Jasmin Morrison,Vance Owen,Tony Parker,Scott Putman,Zack Schiller,Chris Sivertson,Mark Stewart,Timothy C. Sullivan,Michael J. Urann,Stan Wertlieb,Erin Xie,Su Xing,
Music: The Newton Brothers
Cast:
Dave Bautista as Trent DeRosa
Baylee Curran as Alice
Sylvester Stallone as Ray Breslin
Jaime King as Abigail Ross
Wes Chatham as
Titus Welliver as
Jesse Metcalfe as Luke Walken
50 Cent as Hush
Vincent Young as Curly
Lydia Hull as Jules
Trailers:
Official Trailer


Watch-Free-HD     Download

Details
Name:Escape Plan 2 Hades (2018) 720p BRRip x264 ESubs Multi Line Auds-[Hindi + Telugu + Eng] 1GB [M...
Description:
Visit  www.movcr.com

Escape Plan 2 Hades (2018) 720p BRRip x264 ESubs Multi Line Auds-[Hindi +  Telugu + Eng] 1GB [MovCr]


 http://www.imdb.com/title/tt6513656/

 

General
Unique ID                   : 104004969491891975606027463236603042410 (0x4E3EA0E617FE28ED6D6EADC0C3335A6A)
Complete name               : www.MovCr.com - Escape Plan 2 Hades (2018) 720p BRRip x264 ESubs Multi Line Auds-[Hindi +  Telugu + Eng] 1GB [MovCr].mkv
Format                      : Matroska
Format version              : Version 4 / Version 2
File size                   : 990 MiB
Duration                    : 1 h 33 min
Overall bit rate            : 1 478 kb/s
Movie name                  : www.MovCr.com
Encoded date                : UTC 2018-07-09 15:52:36
Writing application         : mkvmerge v23.0.0 ('The Bride Said No') 64-bit
Writing library             : libebml v1.3.6 + libmatroska v1.4.9

Video
ID                          : 1
Format                      : AVC
Format/Info                 : Advanced Video Codec
Format profile              : [email protected]
Format settings, CABAC      : Yes
Format settings, ReFrames   : 4 frames
Codec ID                    : V_MPEG4/ISO/AVC
Duration                    : 1 h 33 min
Bit rate                    : 1 050 kb/s
Width                       : 1 280 pixels
Height                      : 534 pixels
Display aspect ratio        : 2.40:1
Original display aspect rat : 2.40:1
Frame rate mode             : Constant
Frame rate                  : 23.976 (24000/1001) FPS
Color space                 : YUV
Chroma subsampling          : 4:2:0
Bit depth                   : 8 bits
Scan type                   : Progressive
Bits/(Pixel*Frame)          : 0.064
Stream size                 : 703 MiB (71%)
Title                       : www.MovCr.com
Writing library             : x264 core 152
Encoding settings           : cabac=1 / ref=4 / deblock=1:-1:-1 / analyse=0x3:0x133 / me=umh / subme=9 / psy=1 / psy_rd=1.00:0.15 / mixed_ref=1 / me_range=24 / chroma_me=1 / trellis=2 / 8x8dct=1 / cqm=0 / deadzone=21,11 / fast_pskip=0 / chroma_qp_offset=-3 / threads=12 / lookahead_threads=1 / sliced_threads=0 / nr=0 / decimate=1 / interlaced=0 / bluray_compat=0 / constrained_intra=0 / bframes=3 / b_pyramid=2 / b_adapt=2 / b_bias=0 / direct=3 / weightb=1 / open_gop=0 / weightp=2 / keyint=250 / keyint_min=23 / scenecut=40 / intra_refresh=0 / rc_lookahead=60 / rc=2pass / mbtree=1 / bitrate=1050 / ratetol=1.0 / qcomp=0.60 / qpmin=0 / qpmax=69 / qpstep=4 / cplxblur=20.0 / qblur=0.5 / vbv_maxrate=31250 / vbv_bufsize=31250 / nal_hrd=none / filler=0 / ip_ratio=1.40 / aq=1:1.00
Default                     : Yes
Forced                      : No

Audio #1
ID                          : 2
Format                      : MPEG Audio
Format version              : Version 1
Format profile              : Layer 3
Mode                        : Joint stereo
Mode extension              : MS Stereo
Codec ID                    : A_MPEG/L3
Codec ID/Hint               : MP3
Duration                    : 1 h 33 min
Bit rate mode               : Constant
Bit rate                    : 128 kb/s
Channel(s)                  : 2 channels
Sampling rate               : 44.1 kHz
Frame rate                  : 38.281 FPS (1152 spf)
Compression mode            : Lossy
Delay relative to video     : -43 ms
Stream size                 : 85.7 MiB (9%)
Title                       : www.MovCr.com
Writing library             : LAME3.98.2
Language                    : Telugu
Default                     : Yes
Forced                      : No

Audio #2
ID                          : 3
Format                      : AAC
Format/Info                 : Advanced Audio Codec
Format profile              : LC
Codec ID                    : A_AAC
Duration                    : 1 h 33 min
Bit rate                    : 169 kb/s
Channel(s)                  : 2 channels
Channel positions           : Front: L R
Sampling rate               : 48.0 kHz
Frame rate                  : 46.875 FPS (1024 spf)
Compression mode            : Lossy
Delay relative to video     : -43 ms
Stream size                 : 113 MiB (11%)
Title                       : www.MovCr.com
Language                    : English
Default                     : No
Forced                      : No

Audio #3
ID                          : 4
Format                      : MPEG Audio
Format version              : Version 1
Format profile              : Layer 3
Mode                        : Joint stereo
Mode extension              : MS Stereo
Codec ID                    : A_MPEG/L3
Codec ID/Hint               : MP3
Duration                    : 1 h 33 min
Bit rate mode               : Constant
Bit rate                    : 128 kb/s
Channel(s)                  : 2 channels
Sampling rate               : 44.1 kHz
Frame rate                  : 38.281 FPS (1152 spf)
Compression mode            : Lossy
Delay relative to video     : -43 ms
Stream size                 : 85.7 MiB (9%)
Title                       : www.MovCr.com
Writing library             : LAME3.98.2
Language                    : Hindi
Default                     : No
Forced                      : Yes

Text
ID                          : 5
Format                      : UTF-8
Codec ID                    : S_TEXT/UTF8
Codec ID/Info               : UTF-8 Plain Text
Duration                    : 1 h 24 min
Bit rate                    : 45 b/s
Count of elements           : 848
Stream size                 : 28.2 KiB (0%)
Title                       : www.MovCr.com
Language                    : English
Default                     : No
Forced                      : No



 
 
 
 
 
 
 
 
 
 
 
Category:Movies > Hollywood Dub
Lang:Hindi
Total Size:990.06 MB
Info Hash:969792a1c410ab90b2fd34c6d84620107338f71d
Added By:MAZE
Date Added:09-07-2018 17:02:04
Views:737
Hits:148

Download Torrent

Ratings:Not Yet Rated (Log in to rate it)


Tracker:
udp://tracker.coppersurfer.tk:6969/announce


File List: 


Comments

No comments still posted

Powered by 10 Hamsters v2-svn -|- Page Generated In 1.886914 secs.
-|- RSS FEED
Theme By: Nikkbu