[PC] LEGO: THE INCREDIBLES [GOOGLEDRIVE] | 5th Passenger (2018) Full Movie Watch Online 5th Passenger (2018) Full Movie Watch Online in HD Print Quality Free Download,Full Movie 5th Passenger (2018) Watch Online in DVD Print Quality Download.5th Passenger is set in the aftermath of an oppressive class war, Miller, a pregnant officer aboard an escape pod must struggle to survive with her remaining crew when a mysterious and vicious life form attacks, determined ... | 1624EmilyREmilyRsFirstGloryholeVideoPov
[Login] or [Signup]
Login
Username:
Password:
[Signup]
[Recover Account]


Poll


You must be logged in to view polls



Torrent Details For "Rampage (2018) 720p BluRay x264 ESubs-[Hindi (DD5.1) + Eng] - 1GB [MovCr]"

Rampage (2018) 720p BluRay x264 ESubs-[Hindi (DD5.1) + Eng] - 1GB [MovCr]

Download this torrent | Magnet Download
Health:
Seeds: 279
Leechers: 129
Completed: 9,908 
Last Checked: 16-07-2018 08:54:53
External Torrent
Update Stats
Download Magnet


Poster


iMDB
Imdb Picture Title: Rampage
Year: 2018
Runtime: 107 minutes
Votes: 1815
Rating: 6.4/10
Language: English, Spanish
Country: USA
All Genres: Action, Adventure, Sci-Fi
Plot Outline: When three different animals become infected with a dangerous pathogen, a primatologist and a geneticist team up to stop them from destroying Chicago.
Tagline: Big Meets Bigger
Director: Brad Peyton
Writing By: Ryan Engle,Carlton Cuse,Ryan J. Condal,Adam Sztykiel,Ryan Engle,
Produced By: Richard Brener,Michael Disco,Toby Emmerich,Jeffrey Fierson,Beau Flynn,Dany Garcia,Hiram Garcia,Wendy Jacobson,Dwayne Johnson,Josh Mack,Brad Peyton,Darin Read,John Rickard,Dana Robin,Ozzie Scott,Marcus Viscidi,
Music: Andrew Lockington
Cast:
Dwayne Johnson as Davis Okoye
Naomie Harris as Dr. Kate Caldwell
Malin Akerman as Claire Wyden
Jeffrey Dean Morgan as Harvey Russell
Jake Lacy as Brett Wyden
Joe Manganiello as Burke
Marley Shelton as Dr. Kerry Atkins
P.J. Byrne as Nelson
Demetrius Grosse as Colonel Blake
Jack Quaid as Connor
Trailers:
Rampage
Trailer #2
Rampage
Trailer #1


Watch-Free-HD     Download

Details
Name:Rampage (2018) 720p BluRay x264 ESubs-[Hindi (DD5.1) + Eng] - 1GB [MovCr]
Description:
Visit Our Site   www.movcr.com


Rampage (2018) 720p BluRay x264 ESubs-[Hindi (DD5.1) + Eng] - 1GB [MovCr]


 http://www.imdb.com/title/tt2231461/

 

General
Unique ID                   : 96289560575525310676119139820586254729 (0x4870B1DEB3FCE3F834184DE0FB75C189)
Complete name               : www.MovCr.com - Rampage (2018) 720p BluRay x264 ESubs-[Hindi (DD5.1) + Eng] - 1GB [MovCr].mkv
Format                      : Matroska
Format version              : Version 4 / Version 2
File size                   : 1.03 GiB
Duration                    : 1 h 47 min
Overall bit rate            : 1 371 kb/s
Movie name                  : www.MovCr.com
Encoded date                : UTC 2018-07-08 10:38:52
Writing application         : mkvmerge v23.0.0 ('The Bride Said No') 64-bit
Writing library             : libebml v1.3.6 + libmatroska v1.4.9

Video
ID                          : 1
Format                      : AVC
Format/Info                 : Advanced Video Codec
Format profile              : [email protected]
Format settings, CABAC      : Yes
Format settings, ReFrames   : 4 frames
Codec ID                    : V_MPEG4/ISO/AVC
Duration                    : 1 h 47 min
Bit rate                    : 1 050 kb/s
Width                       : 1 280 pixels
Height                      : 534 pixels
Display aspect ratio        : 2.40:1
Original display aspect rat : 2.40:1
Frame rate mode             : Constant
Frame rate                  : 23.976 FPS
Color space                 : YUV
Chroma subsampling          : 4:2:0
Bit depth                   : 8 bits
Scan type                   : Progressive
Bits/(Pixel*Frame)          : 0.064
Stream size                 : 805 MiB (77%)
Title                       : www.MovCr.com
Writing library             : x264 core 155
Encoding settings           : cabac=1 / ref=4 / deblock=1:-1:-1 / analyse=0x3:0x133 / me=umh / subme=9 / psy=1 / psy_rd=1.00:0.15 / mixed_ref=1 / me_range=24 / chroma_me=1 / trellis=2 / 8x8dct=1 / cqm=0 / deadzone=21,11 / fast_pskip=0 / chroma_qp_offset=-3 / threads=17 / lookahead_threads=1 / sliced_threads=0 / nr=0 / decimate=1 / interlaced=0 / bluray_compat=0 / constrained_intra=0 / bframes=3 / b_pyramid=2 / b_adapt=2 / b_bias=0 / direct=3 / weightb=1 / open_gop=0 / weightp=2 / keyint=250 / keyint_min=23 / scenecut=40 / intra_refresh=0 / rc_lookahead=60 / rc=2pass / mbtree=1 / bitrate=1050 / ratetol=1.0 / qcomp=0.60 / qpmin=0 / qpmax=69 / qpstep=4 / cplxblur=20.0 / qblur=0.5 / vbv_maxrate=31250 / vbv_bufsize=31250 / nal_hrd=none / filler=0 / ip_ratio=1.40 / aq=1:1.00
Language                    : English
Default                     : Yes
Forced                      : No

Audio #1
ID                          : 2
Format                      : AC-3
Format/Info                 : Audio Coding 3
Mode extension              : CM (complete main)
Format settings, Endianness : Big
Codec ID                    : A_AC3
Duration                    : 1 h 47 min
Bit rate mode               : Constant
Bit rate                    : 160 kb/s
Channel(s)                  : 6 channels
Channel positions           : Front: L C R, Side: L R, LFE
Sampling rate               : 44.1 kHz
Frame rate                  : 28.711 FPS (1536 spf)
Bit depth                   : 16 bits
Compression mode            : Lossy
Delay relative to video     : -43 ms
Stream size                 : 123 MiB (12%)
Title                       : www.MovCr.com
Language                    : Hindi
Default                     : Yes
Forced                      : No

Audio #2
ID                          : 3
Format                      : AAC
Format/Info                 : Advanced Audio Codec
Format profile              : LC
Codec ID                    : A_AAC
Duration                    : 1 h 47 min
Bit rate                    : 159 kb/s
Channel(s)                  : 2 channels
Channel positions           : Front: L R
Sampling rate               : 48.0 kHz
Frame rate                  : 46.875 FPS (1024 spf)
Compression mode            : Lossy
Delay relative to video     : -43 ms
Stream size                 : 122 MiB (12%)
Title                       : www.MovCr.com
Language                    : English
Default                     : No
Forced                      : No

Text
ID                          : 4
Format                      : UTF-8
Codec ID                    : S_TEXT/UTF8
Codec ID/Info               : UTF-8 Plain Text
Duration                    : 1 h 37 min
Bit rate                    : 55 b/s
Count of elements           : 1280
Stream size                 : 39.5 KiB (0%)
Title                       : www.MovCr.com
Language                    : English
Default                     : Yes
Forced                      : No



 
 
 
 
 
 
 
 
 
Category:Movies > Hollywood Dub
Lang:Hindi
Total Size:1.03 GB
Info Hash:0a0e4720f06de06807333ec06ee7b5997e63cb70
Added By:MAZE
Date Added:08-07-2018 11:45:20
Views:2,369
Hits:622

Download Torrent

Ratings:Not Yet Rated (Log in to rate it)


Tracker:
udp://tracker.coppersurfer.tk:6969/announce


File List: 


Comments

No comments still posted

Powered by 10 Hamsters v2-svn -|- Page Generated In 1.957208 secs.
-|- RSS FEED
Theme By: Nikkbu