Filmes Fantasia | EvenTS163RU | The Pirates of Somalia
[Login] or [Signup]
Login
Username:
Password:
[Signup]
[Recover Account]


Poll


You must be logged in to view polls



Torrent Details For "Overboard 2018 720p HDCAM x264 AAC [MW]"

Overboard 2018 720p HDCAM x264 AAC [MW]

Download this torrent | Magnet Download
Health:
Seeds: 154
Leechers: 245
Completed: 168 
Last Checked: 07-07-2018 23:39:14
External Torrent
Update Stats
Download Magnet


Poster
No poster


Watch-Free-HD     Download

Details
Name:Overboard 2018 720p HDCAM x264 AAC [MW]
Description:

 


General
Format                                   : Matroska
Format version                           : Version 4 / Version 2
File size                                : 1.15 GiB
Duration                                 : 1 h 47 min
Overall bit rate                         : 1 534 kb/s

Video
ID                                       : 1
Format                                   : AVC
Format/Info                              : Advanced Video Codec
Format profile                           : [email protected]
Format settings                          : CABAC / 4 Ref Frames
Format settings, CABAC                   : Yes
Format settings, RefFrames               : 4 frames
Codec ID                                 : V_MPEG4/ISO/AVC
Duration                                 : 1 h 47 min
Bit rate                                 : 1 400 kb/s
Width                                    : 1 280 pixels
Height                                   : 560 pixels
Display aspect ratio                     : 2.25:1
Frame rate mode                          : Constant
Frame rate                               : 30.000 FPS
Color space                              : YUV
Chroma subsampling                       : 4:2:0
Bit depth                                : 8 bits
Scan type                                : Progressive
Bits/(Pixel*Frame)                       : 0.065
Stream size                              : 1.05 GiB (92%)
Writing library                          : x264 core 155 r2901 7d0ff22
Default                                  : Yes
Forced                                   : No

Audio
ID                                       : 2
Format                                   : AAC
Format/Info                              : Advanced Audio Codec
Format profile                           : HE-AAC / LC
Format settings                          : Explicit
Codec ID                                 : A_AAC-2
Duration                                 : 1 h 47 min
Bit rate                                 : 127 kb/s
Channel(s)                               : 2 channels
Channel positions                        : Front: L R
Sampling rate                            : 44.1 kHz / 22.05 kHz
Frame rate                               : 21.533 FPS (1024 SPF)
Compression mode                         : Lossy
Stream size                              : 97.3 MiB (8%)
Language                                 : English
Default                                  : Yes
Forced                                   : No


Click To Enlarge Image

 
 
 
 
 
 

Category:Movies > Pre-Releases
Lang:English  English
Total Size:1.15 GB
Info Hash:3272d752933ccca7afb44d233cf253adc59ac100
Added By:Freaky
Date Added:07-07-2018 23:39:03
Views:96
Hits:0

Download Torrent

Ratings:Not Yet Rated (Log in to rate it)


Tracker:
udp://tracker.coppersurfer.tk:6969/announce


File List: 


Comments

No comments still posted

Powered by 10 Hamsters v2-svn -|- Page Generated In 3.739335 secs.
-|- RSS FEED
Theme By: Nikkbu