voir ├ępisode 24 | Lee Aronsohn | Cook Share Eat Vegan
[Login] or [Signup]
Login
Username:
Password:
[Signup]
[Recover Account]


Poll


You must be logged in to view polls



Torrent Details For "Escape Plan (Escape from Ensenada) (2018) Hindi Dubbed 720p HD x264 AAC 400MB [MovCr]"

Escape Plan (Escape from Ensenada) (2018) Hindi Dubbed 720p HD x264 AAC 400MB [MovCr]

Download this torrent | Magnet Download
Health:
Seeds: 0
Leechers: 0
Completed:
Last Checked: 04-07-2018 17:42:50
External Torrent
Update Stats
Download Magnet


Poster


iMDB
Imdb Picture Original Title: California Dreaming
Title: Escape from Ensenada
Year: 2017
Runtime: 83 minutes
Votes: 399
Rating: 5.8/10
Language: English, Spanish, Afrikaans
Country: USA
All Genres: Action, Adventure, Comedy, Crime, Thriller
Plot Outline: It's "TAKEN" with girls when two California College students are kidnapped by a vicious cartel led by a former INTERPOL agent while on vacation in Mexico. Jenna, a foreign exchange student from South Africa with milita-member parents, and Lyndsey, the spoiled daughter of a wealthy banker, find themselves at the mercy of a former Interpol Agent from the United States now living in Mexico and his vicious adopted son. After a deal for their freedom goes bad, Jenna uses the skills she learned from growing up in South Africa to break her and Lyndsey free, leaving a trail of cartel bodies behind them in the process. Written by Jaguar Motion Pictures


Director: Brandon Slagle
Writing By: Robert Thompson,
Produced By: Liz Cuppie,Alexis Iacono,Gigi Coray Jankowski,Jeffrey Jankowski,Donna Kopp,John Kopp,Michelle Romano,James C. Ward,
Music: Machinima Sound
Cast:
Bronwyn Carrie-Wilson as Jenna
Devanny Pinn as Lyndsey
Louis Mandylor as Agent Csokas
Jonathan Goldstein as Buchanan
Jose Rosete as Morales
Victor Boneva as Javier
Noel Gugliemi as Raul
Adriana Fonseca as Manuela
Charles Chudabala as Miguel
Mauricio Ahued as Chuy
Trailers:
Escape from Ensenada


Watch-Free-HD     Download

Details
Name:Escape Plan (Escape from Ensenada) (2018) Hindi Dubbed 720p HD x264 AAC 400MB [MovCr]
Description:
Escape Plan (Escape from Ensenada) (2018) Hindi Dubbed 720p HD x264 AAC 400MB [MovCr]

 http://www.imdb.com/title/tt3652616/

 

General
Unique ID                   : 251951120858885059724119687232247008157 (0xBD8C05545AE273AF119EE1DA2CEB8B9D)
Complete name               : www.MovCr.com - Escape Plan (Escape from Ensenada) (2018) Hindi Dubbed 720p HD x264 AAC 400MB [MovCr].mkv
Format                      : Matroska
Format version              : Version 4 / Version 2
File size                   : 414 MiB
Duration                    : 1 h 16 min
Overall bit rate            : 753 kb/s
Movie name                  : www.MovCr.com
Encoded date                : UTC 2018-07-04 16:34:00
Writing application         : mkvmerge v23.0.0 ('The Bride Said No') 64-bit
Writing library             : libebml v1.3.6 + libmatroska v1.4.9

Video
ID                          : 1
Format                      : AVC
Format/Info                 : Advanced Video Codec
Format profile              : [email protected]
Format settings, CABAC      : Yes
Format settings, ReFrames   : 3 frames
Codec ID                    : V_MPEG4/ISO/AVC
Duration                    : 1 h 16 min
Bit rate                    : 626 kb/s
Width                       : 1 280 pixels
Height                      : 720 pixels
Display aspect ratio        : 16:9
Frame rate mode             : Constant
Frame rate                  : 23.976 (24000/1001) FPS
Color space                 : YUV
Chroma subsampling          : 4:2:0
Bit depth                   : 8 bits
Scan type                   : Progressive
Bits/(Pixel*Frame)          : 0.028
Stream size                 : 344 MiB (83%)
Title                       : www.MovCr.com
Default                     : Yes
Forced                      : No
Color range                 : Limited
Color primaries             : BT.709
Transfer characteristics    : BT.709
Matrix coefficients         : BT.709

Audio
ID                          : 2
Format                      : AAC
Format/Info                 : Advanced Audio Codec
Format profile              : LC
Codec ID                    : A_AAC
Duration                    : 1 h 16 min
Bit rate                    : 126 kb/s
Channel(s)                  : 2 channels
Channel positions           : Front: L R
Sampling rate               : 44.1 kHz
Frame rate                  : 43.066 FPS (1024 spf)
Compression mode            : Lossy
Stream size                 : 69.0 MiB (17%)
Title                       : www.MovCr.com
Language                    : Hindi
Default                     : Yes
Forced                      : No



 
 
 
 
 
 
 
 
 
Category:Movies > South Dub
Lang:Hindi
Total Size:413.77 MB
Info Hash:c974e64c6e405104aaae47490c7ad7300b7bd999
Added By:MAZE
Date Added:04-07-2018 17:42:50
Views:548
Hits:35

Download Torrent

Ratings:Not Yet Rated (Log in to rate it)


Tracker:
udp://tracker.coppersurfer.tk:6969/announce


File List: 


Comments

No comments still posted

Powered by 10 Hamsters v2-svn -|- Page Generated In 1.395329 secs.
-|- RSS FEED
Theme By: Nikkbu