Kaïna Blada | Noah Jupe | 2x5 | I Love You, America - Episode 5 2018-10-04
[Login] or [Signup]
Login
Username:
Password:
[Signup]
[Recover Account]


Poll


You must be logged in to view polls



Torrent Details For "Tarnation 2017 1080p BluRay x264 DTS [MW]"

Tarnation 2017 1080p BluRay x264 DTS [MW]

Download this torrent | Magnet Download
Health:
Seeds: 35
Leechers: 116
Completed: 41 
Last Checked: 30-06-2018 08:44:36
External Torrent
Update Stats
Download Magnet


Poster
No poster


Watch-Free-HD     Download

Details
Name:Tarnation 2017 1080p BluRay x264 DTS [MW]
Description:

 

General
Format                                   : Matroska
Format version                           : Version 4 / Version 2
File size                                : 2.51 GiB
Duration                                 : 1 h 23 min
Overall bit rate                         : 4 311 kb/s

Video
ID                                       : 1
Format                                   : AVC
Format/Info                              : Advanced Video Codec
Format profile                           : [email protected]
Format settings                          : CABAC / 4 Ref Frames
Format settings, CABAC                   : Yes
Format settings, RefFrames               : 4 frames
Codec ID                                 : V_MPEG4/ISO/AVC
Duration                                 : 1 h 23 min
Bit rate                                 : 2 800 kb/s
Width                                    : 1 920 pixels
Height                                   : 1 080 pixels
Display aspect ratio                     : 16:9
Frame rate mode                          : Constant
Frame rate                               : 23.976 (24000/1001) FPS
Color space                              : YUV
Chroma subsampling                       : 4:2:0
Bit depth                                : 8 bits
Scan type                                : Progressive
Bits/(Pixel*Frame)                       : 0.056
Stream size                              : 1.63 GiB (65%)
Writing library                          : x264 core 155 r2901 7d0ff22
Default                                  : Yes
Forced                                   : No

Audio
ID                                       : 2
Format                                   : DTS
Format/Info                              : Digital Theater Systems
Codec ID                                 : A_DTS
Duration                                 : 1 h 23 min
Bit rate mode                            : Constant
Bit rate                                 : 1 509 kb/s
Channel(s)                               : 6 channels
Channel positions                        : Front: L C R, Side: L R, LFE
Sampling rate                            : 48.0 kHz
Frame rate                               : 93.750 FPS (512 SPF)
Bit depth                                : 24 bits
Compression mode                         : Lossy
Stream size                              : 898 MiB (35%)
Language                                 : English
Default                                  : Yes
Forced                                   : No

Menu
00:00:00.000                             : en:00:00:00.000
00:07:24.486                             : en:00:07:24.444
00:13:47.952                             : en:00:13:47.827
00:20:30.229                             : en:00:20:30.229
00:27:23.684                             : en:00:27:23.642
00:33:30.133                             : en:00:33:30.008
00:42:34.677                             : en:00:42:34.552
00:47:57.917                             : en:00:47:57.875
00:55:28.325                             : en:00:55:28.325
01:02:31.831                             : en:01:02:31.748
01:09:48.184                             : en:01:09:48.184
01:14:50.486                             : en:01:14:50.486


Click To Enlarge Image
 
 
 
 
 
 
 

Category:Movies > 1080P Bluray
Lang:English  English
Total Size:2.51 GB
Info Hash:baa2a5ee6b5375bf4be9aeaa04d48a290853db9b
Added By:Freaky
Date Added:30-06-2018 08:44:26
Views:288
Hits:13

Download Torrent

Ratings:Not Yet Rated (Log in to rate it)


Tracker:
udp://tracker.coppersurfer.tk:6969/announce


File List: 


Comments

No comments still posted

Powered by 10 Hamsters v2-svn -|- Page Generated In 4.206817 secs.
-|- RSS FEED
Theme By: Nikkbu