The Guardians | Charles Aznavour | Microsoft Word 2016
[Login] or [Signup]
Login
Username:
Password:
[Signup]
[Recover Account]


Poll


You must be logged in to view polls



Torrent Details For "Game of Thrones S01E05 720p BluRay x264 AC3 ESub Dual Audio [Hindi + English] 525MB [CraZzyBoY]..."

Game of Thrones S01E05 720p BluRay x264 AC3 ESub Dual Audio [Hindi + English] 525MB [CraZzyBoY]...

Download this torrent | Magnet Download
Health:
Seeds: 939
Leechers: 243
Completed: 7,111 
Last Checked: 29-06-2018 17:25:13
External Torrent
Update Stats
Download Magnet


Poster


iMDB
Imdb Picture Title: Game of Thrones
Year: 2011
Runtime: 56 minutes
Votes: 1176427
Rating: 9.5/10
Language: English
Country: USA, UK
All Genres: Adventure, Drama, Fantasy, Romance
Plot Outline: Nine noble families fight for control over the mythical lands of Westeros, while a forgotten race returns after being dormant for thousands of years.
Tagline: The Real War Is Between The Living And The Dead
Director: Alan Taylor
David Nutter
Alex Graves
Mark Mylod
Jeremy Podeswa
Daniel Minahan
Alik Sakharov
Michelle MacLaren
Miguel Sapochnik
Brian Kirk
Timothy Van Patten
Neil Marshall
David Petrarca
Michael Slovis
Jack Bender
Daniel Sackheim
Matt Shakman
David Benioff
D.B. Weiss
Writing By: David Benioff,D.B. Weiss,George R.R. Martin,Bryan Cogman,Vanessa Taylor,Dave Hill,Jane Espenson,
Produced By: David Benioff,D.B. Weiss,George R.R. Martin,Guymon Casady,Frank Doelger,Vince Gerardis,Christopher Newman,Greg Spence,Carolyn Strauss,Oliver Butler,Bernadette Caulfield,Lisa McAtackney,Annick Wolkan,Erika Milutin,Bryan Cogman,Alan Freir,Duncan Muggoch,Snorri ├×├│risson,Peter Welter Soler,Jonathan Brytus,Vanessa Taylor,Melissa Demino,Mark Huffam,Alan Taylor,Alanna Riddell,Jim Duggan,Guy Tannahill,Ahmed Abounouom,Ralph Vicinanza,Jo Burn,Tom McCarthy,Apriel Starkweather,
Music: Ramin Djawadi
Plot:

In the mythical continent of Westeros, several powerful families fight for control of the Seven Kingdoms. As conflict erupts in the kingdoms of men, an ancient enemy rises once again to threaten them all. Meanwhile, the last heirs of a recently usurped dynasty plot to take back their homeland from across the Narrow Sea.

- Written by Sam Gray

Years after a rebellion spurred by a stolen bride to be and the blind ambitions of a mad king, Robert of the house Baratheon sits on the much desired Iron Throne. In the mythical land of Westeros, nine noble families fight for every inch of control and every drop of power. The King's Hand, Jon Arryn, is dead. And Robert seeks out his only other ally in all of Westeros, his childhood friend Eddard Stark. The solemn and honorable Warden of the North is tasked to depart his frozen sanctuary and join the King in the capital of King's Landing to help the now overweight and drunk Robert rule. However, a letter in the dead of night informs Ned that the former Hand was murdered, and that Robert will be next. So noble Ned goes against his better desires in an attempt to save his friend and the kingdoms. But political intrigue, plots, murders, and sexual desires lead to a secret that could tear the Seven Kingdoms apart. And soon Eddard will find out what happens when you play the Game of Thrones.

- Written by Gregory Tobin

Nine noble families fight for control of the mythical land of Westeros. Political and sexual intrigue is pervasive. Robert Baratheon, King of Westeros, asks his old friend Eddard, Lord Stark, to serve as Hand of the King, or highest official. Secretly warned that the previous Hand was assassinated, Eddard accepts in order of business to investigate further. Meanwhile the Queen's family, the Lannisters, may be hatching a plot to take power. Across the sea, the last members of the previous and deposed ruling family, the Targaryens, are also scheming to regain the throne. The friction between the houses Stark, Lannister, Baratheon and Targaryen and with the remaining great houses Greyjoy, Tully, Arryn, Tyrell and Martell leads to full-scale war. All while a very ancient evil awakens in the farthest north. Amidst the war and political confusion, a neglected military order of misfits, the Night's Watch, is all that stands between the realms of men and icy horrors beyond.

- Written by Tfilm78 and Cajunman

Nine noble families fight for control over the mythical lands of Westeros, while a forgotten race returns after being dormant for thousands of years.

- Written by GypsyKing878
Cast:
Peter Dinklage as Tyrion Lannister
Lena Headey as Cersei Lannister
Emilia Clarke as Daenerys Targaryen
Kit Harington as Jon Snow
Sophie Turner as Sansa Stark
Maisie Williams as Arya Stark
Nikolaj Coster-Waldau as Jaime Lannister
Iain Glen as Jorah Mormont
Alfie Allen as Theon Greyjoy
John Bradley as Samwell Tarly
Trailers:
Season 6, Episode 5 Preview
Season 6, Episode 3 Preview
Season 6 Trailer
Vengeance
Trailer #2
Season 6 Finale Preview
Season 6, Episode 8 Preview
Season 6, Episode 6 Preview
Season Four Trailer
Season 7 Official Tease: "Sigils"
Season 6 Trailer #2
Secrets
Game of Thrones
Season 3 Teaser
Trailer #2
Season 6 Teaser
March Madness Promo
Season 6: Trailer
Long Walk Official Promo
Season 6, Episode 7 Preview
"We Do Not Choose Our Destiny..."
Season 3 Preview: "Chaos"
Season 7 | Official Trailer
Season 7: Trailer #2


Watch-Free-HD     Download

Details
Name:Game of Thrones S01E05 720p BluRay x264 AC3 ESub Dual Audio [Hindi + English] 525MB [CraZzyBoY]...
Description:

Quote:



Special Thanks To Khiladi786 For Hindi Audio
Please Note : 18+ Scenes are synced with English Audio
6th Episode Coming Soon...
'Work in Progress'


Format : Matroska
Format version : Version 4 / Version 2
File size : 524 MiB
Duration : 54 min 16 s
Overall bit rate : 1 350 kb/s
Movie name : MoviezAddiction.Website | Game of Thrones S01E05

Video
Format : AVC
Duration : 54 min 16 s
Bit rate : 1 092 kb/s
Width : 1 280 pixels
Height : 720 pixels
Display aspect ratio : 16:9
Frame rate : 23.976 (24000/1001) FPS
Bits/(Pixel*Frame) : 0.049
Stream size : 424 MiB (81%)
Title : MoviezAddiction.Website
Language : English
Default : Yes

Audio #1
Format : AC-3
Duration : 54 min 16 s
Bit rate mode : Constant
Bit rate : 192 kb/s
Channel(s) : 6 channels
Channel positions : Front: L C R, Side: L R, LFE
Sampling rate : 48.0 kHz
Stream size : 74.5 MiB (14%)
Title : fb/HindiHollywood
Language : Hindi

Audio #2
Format : AAC
Duration : 54 min 16 s
Bit rate : 63.9 kb/s
Channel(s) : 2 channels
Channel positions : Front: L R
Title : MoviezAddiction.Website
Language : English

Text
Codec ID/Info : UTF-8 Plain Text
Duration : 52 min 54 s
Stream size : 28.8 KiB (0%)
Title : MoviezAddiction.Website
Language : English    


Ned refuses to participate in Robert's plan to assassinate the pregnant Daenerys Targaryen, and resigns as Robert's Hand, angering him. Catelyn and Tyrion (whom she has taken as her prisoner) arrive at her sister Lysa's home in the Eyrie. News of Tyrion's capture reaches King's Landing where Jaime Lannister, the Queen's twin brother, demands answers from Ned. A vengeful Jaime fights Ned until his man stabs Ned in the leg from behind, leaving him wounded as his forces leave the capital.















Category:TV > WEB-HD
Lang:Hindi
Total Size:524.19 MB
Info Hash:d85bb7c5c956efdd94155bc0a81f0f25ccc686e3
Added By:XoXo
Date Added:27-06-2018 08:36:08
Views:865
Hits:252

Download Torrent

Ratings:Not Yet Rated (Log in to rate it)


Tracker:
http://tracker.opentrackr.org/announce

This Torrent also has backup trackers
URLSeedersLeechersCompleted
http://tracker.opentrackr.org/announce000
http://jiotorrents.net/announce.php?pk=45c146d4fe1da1cb8d1c064d3431e0546ad49dc3000
http://tracker.trackerfix.com:80/announce000


File List: 


Comments

No comments still posted

Powered by 10 Hamsters v2-svn -|- Page Generated In 1.377578 secs.
-|- RSS FEED
Theme By: Nikkbu