Creux Lies - "Portals" | Laura Backen (0) | Happy Lesson (14)
[Login] or [Signup]
Login
Username:
Password:
[Signup]
[Recover Account]


Poll


You must be logged in to view polls



Torrent Details For "Avengers Infinity War 2018 x264 720p Esub HDTC Dual Audio English Hindi GOPISAHI"

Avengers Infinity War 2018 x264 720p Esub HDTC Dual Audio English Hindi GOPISAHI

Download this torrent | Magnet Download
Health:
Seeds: 13
Leechers: 238
Completed:
Last Checked: 13-06-2018 17:39:02
External Torrent
Update Stats
Download Magnet


Poster
No poster


Watch-Free-HD     Download

Details
Name:Avengers Infinity War 2018 x264 720p Esub HDTC Dual Audio English Hindi GOPISAHI
Description:
 http://www.gopisahi.pw/

File size                      : 748 MiB
Duration                       : 2 h 28 min
Overall bit rate               : 703 kb/s
Movie name                     : Avengers: Infinity War 2018 GOPISAHI
Encoded date                   : UTC 2018-06-13 16:04:49
Writing application            : mkvmerge v19.0.0 ('Brave Captain') 32-bit
Writing library                : libebml v1.3.5 + libmatroska v1.4.8

Video
ID                             : 4
Format                         : AVC
Format/Info                    : Advanced Video Codec
Format profile                 : [email protected]
Format settings                : CABAC / 12 Ref Frames
Format settings, CABAC         : Yes
Format settings, ReFrames      : 12 frames
Codec ID                       : V_MPEG4/ISO/AVC
Duration                       : 2 h 17 min
Bit rate                       : 600 kb/s
Width                          : 1 280 pixels
Height                         : 536 pixels
Display aspect ratio           : 2.40:1
Frame rate mode                : Constant
Frame rate                     : 25.000 FPS
Color space                    : YUV
Chroma subsampling             : 4:2:0
Bit depth                      : 8 bits
Scan type                      : Progressive
Bits/(Pixel*Frame)             : 0.035
Stream size                    : 591 MiB (79%)
Title                          : GOPISAHI
Writing library                : x264 core 155 r2893 b00bcaf
E

Audio #1
Format                         : AAC
Duration                       : 2 h 17 min
Bit rate                       : 93.4 kb/s
Channel(s)                     : 2 channels
Channel positions              : Front: L R
Sampling rate                  : 48.0 kHz
Frame rate                     : 46.875 FPS (1024 SPF)
Compression mode               : Lossy
Stream size                    : 92.0 MiB (12%)
Title                          : GOPISAHI
Language                       : English

Audio #2
Format                         : AAC
Duration                       : 2 h 17 min
Bit rate                       : 62.8 kb/s
Channel(s)                     : 2 channels
Channel positions              : Front: L R
Sampling rate                  : 48.0 kHz
Frame rate                     : 46.875 FPS (1024 SPF)
Compression mode               : Lossy
Stream size                    : 61.9 MiB (8%)
Title                          : GOPISAHI
Language                       : Hindi

Text
Language                       : English


Category:Movies > Hollywood Dub
Lang:English  English
Total Size:748.21 MB
Info Hash:546e20591299595037c30975086007be0c979fb9
Added By:Unknown
Date Added:13-06-2018 17:25:28
Views:2,255
Hits:209

Download Torrent

Ratings:Not Yet Rated (Log in to rate it)


Tracker:
udp://9.rarbg.com:2740/announce


File List: 


Comments

No comments still posted

Powered by 10 Hamsters v2-svn -|- Page Generated In 1.977713 secs.
-|- RSS FEED
Theme By: Nikkbu