Watch movie | Descargar APK | Health Fitness
[Login] or [Signup]
Login
Username:
Password:
[Signup]
[Recover Account]


Poll


You must be logged in to view polls



Torrent Details For "Baaghi 2 2018 Hindi 1080p WEB-DL x264 [MW]"

Baaghi 2 2018 Hindi 1080p WEB-DL x264 [MW]

Download this torrent | Magnet Download
Health:
Seeds: 151
Leechers: 312
Completed: 166 
Last Checked: 13-06-2018 09:56:24
External Torrent
Update Stats
Download Magnet


Poster
No poster


Watch-Free-HD     Download

Details
Name:Baaghi 2 2018 Hindi 1080p WEB-DL x264 [MW]
Description:


 

General
Format                                   : Matroska
Format version                           : Version 4 / Version 2
File size                                : 2.18 GiB
Duration                                 : 2 h 14 min
Overall bit rate                         : 2 318 kb/s

Video
ID                                       : 1
Format                                   : AVC
Format/Info                              : Advanced Video Codec
Format profile                           : [email protected]
Format settings                          : CABAC / 4 Ref Frames
Format settings, CABAC                   : Yes
Format settings, RefFrames               : 4 frames
Codec ID                                 : V_MPEG4/ISO/AVC
Duration                                 : 2 h 14 min
Bit rate                                 : 2 200 kb/s
Width                                    : 1 920 pixels
Height                                   : 804 pixels
Display aspect ratio                     : 2.40:1
Frame rate mode                          : Constant
Frame rate                               : 25.000 FPS
Color space                              : YUV
Chroma subsampling                       : 4:2:0
Bit depth                                : 8 bits
Scan type                                : Progressive
Bits/(Pixel*Frame)                       : 0.057
Stream size                              : 2.06 GiB (94%)
Writing library                          : x264 core 155 r2901 7d0ff22
Default                                  : Yes
Forced                                   : No

Audio
ID                                       : 2
Format                                   : AAC
Format/Info                              : Advanced Audio Codec
Format profile                           : LC
Codec ID                                 : A_AAC-2
Duration                                 : 2 h 14 min
Bit rate                                 : 128 kb/s
Channel(s)                               : 2 channels
Channel positions                        : Front: L R
Sampling rate                            : 48.0 kHz
Frame rate                               : 46.875 FPS (1024 SPF)
Compression mode                         : Lossy
Stream size                              : 123 MiB (6%)
Default                                  : Yes
Forced                                   : No





               

Category:Movies > Bollywood
Lang:Hindi
Total Size:2.18 GB
Info Hash:a5f21bf4bc607624fb10b44ea10fcaeca39cfef5
Added By:Freaky
Date Added:13-06-2018 09:55:49
Views:603
Hits:142

Download Torrent

Ratings:Not Yet Rated (Log in to rate it)


Tracker:
udp://tracker.coppersurfer.tk:6969/announce


File List: 


Comments

No comments still posted

Powered by 10 Hamsters v2-svn -|- Page Generated In 1.024566 secs.
-|- RSS FEED
Theme By: Nikkbu