Religions et Spiritualit├ęs | Susan McArdle | India Banega Manch
[Login] or [Signup]
Login
Username:
Password:
[Signup]
[Recover Account]


Poll


You must be logged in to view polls



Torrent Details For "Baaghi 2 2018 Hindi 720p WEB-DL x264 [MW]"

Baaghi 2 2018 Hindi 720p WEB-DL x264 [MW]

Download this torrent | Magnet Download
Health:
Seeds: 135
Leechers: 124
Completed: 501 
Last Checked: 13-06-2018 04:00:06
External Torrent
Update Stats
Download Magnet


Poster


iMDB
Imdb Picture Original Title: Baaghi 2
Title: Baaghi 2: Le rebelle
Year: 2018
Runtime: 137 minutes
Votes: 371
Rating: 5.7/10
Language: Hindi
Country: India
All Genres: Action, Thriller
Plot Outline: Ronny, is hired by ex-lover Neha, to track down her daughter Riya, who has been kidnapped.
Director: Ahmed Khan
Writing By: Hussain Dalal,Abbas Hirapurwala,Jojo Khan,Niraj Kumar Mishra,Sajid Nadiadwala,
Produced By: Bharat Bohra,Dipti Jindal,Rakesh Madhotra,Sajid Nadiadwala,Vikram Raazdan,Vijay Singh,
Music: Mithoon Julius Packiam
Cast:
Disha Patani as Neha
Tiger Shroff as Ronny
Randeep Hooda as
Manoj Bajpayee as
Lakshmi Manchu as
Prateik as
Paras Arora as
Darshan Kumar as
Shifuji Shaurya Bharadwaj as
Indraneel Bhattacharya as
Trailers:
Baaghi 2 Trailer


Watch-Free-HD     Download

Details
Name:Baaghi 2 2018 Hindi 720p WEB-DL x264 [MW]
Description:

 


General
Format                                   : Matroska
Format version                           : Version 4 / Version 2
File size                                : 1.38 GiB
Duration                                 : 2 h 14 min
Overall bit rate                         : 1 470 kb/s

Video
ID                                       : 1
Format                                   : AVC
Format/Info                              : Advanced Video Codec
Format profile                           : [email protected]
Format settings                          : CABAC / 4 Ref Frames
Format settings, CABAC                   : Yes
Format settings, RefFrames               : 4 frames
Codec ID                                 : V_MPEG4/ISO/AVC
Duration                                 : 2 h 14 min
Bit rate                                 : 1 350 kb/s
Width                                    : 1 280 pixels
Height                                   : 536 pixels
Display aspect ratio                     : 2.40:1
Frame rate mode                          : Constant
Frame rate                               : 25.000 FPS
Color space                              : YUV
Chroma subsampling                       : 4:2:0
Bit depth                                : 8 bits
Scan type                                : Progressive
Bits/(Pixel*Frame)                       : 0.079
Stream size                              : 1.26 GiB (91%)
Writing library                          : x264 core 155 r2901 7d0ff22
Default                                  : Yes
Forced                                   : No


Audio
ID                                       : 2
Format                                   : AAC
Format/Info                              : Advanced Audio Codec
Format profile                           : LC
Codec ID                                 : A_AAC-2
Duration                                 : 2 h 14 min
Bit rate                                 : 128 kb/s
Channel(s)                               : 2 channels
Channel positions                        : Front: L R
Sampling rate                            : 48.0 kHz
Frame rate                               : 46.875 FPS (1024 SPF)
Compression mode                         : Lossy
Stream size                              : 123 MiB (9%)
Default                                  : Yes
Forced                                   : No






               

Category:Movies > Bollywood
Lang:Hindi
Total Size:1.38 GB
Info Hash:c26ef7fa6e3296a89ecdd29dba382f5af659ee36
Added By:Freaky
Date Added:12-06-2018 13:31:41
Views:684
Hits:104

Download Torrent

Ratings:Not Yet Rated (Log in to rate it)


Tracker:
udp://tracker.coppersurfer.tk:6969/announce


File List: 


Comments

No comments still posted

Powered by 10 Hamsters v2-svn -|- Page Generated In 1.676494 secs.
-|- RSS FEED
Theme By: Nikkbu