Cloanto MenuBox 5.2.2 | MyBB Group | The Dark Knight
[Login] or [Signup]
Login
Username:
Password:
[Signup]
[Recover Account]


Poll


You must be logged in to view polls



Torrent Details For "Dietland Season 1 2018 E1,2 x264 720p HDRip Tamil Hindi English GOPISAHI"

Dietland Season 1 2018 E1,2 x264 720p HDRip Tamil Hindi English GOPISAHI

Download this torrent | Magnet Download
Health:
Seeds: 0
Leechers: 0
Completed:
Last Checked: 12-06-2018 11:45:42
External Torrent
Update Stats
Download Magnet


Poster
No poster


Watch-Free-HD     Download

Details
Name:Dietland Season 1 2018 E1,2 x264 720p HDRip Tamil Hindi English GOPISAHI
Description:
 http://www.gopisahi.pw/

Dietland Season 1 2018 E1,2 x264 720p HDRip Tamil Hindi English GOPISAHI\Dietland S01E02  Tender Belly   GOPISAHI
Format                         : Matroska
Format version                 : Version 4 / Version 2
File size                      : 197 MiB
Duration                       : 43 min 12 s
Overall bit rate               : 636 kb/s

Video
Format                         : AVCs
Codec ID                       : V_MPEG4/ISO/AVC
Bit rate                       : 400 kb/s
Width                          : 1 280 pixels
Height                         : 720 pixels
Display aspect ratio           : 16:9
Frame rate mode                : Constant
Frame rate                     : 23.976 (24000/1001) FPS
Color space                    : YUV
Chroma subsampling             : 4:2:0
Bit depth                      : 8 bits
Scan type                      : Progressive
Bits/(Pixel*Frame)             : 0.018
Stream size                    : 123 MiB (63%)
Title                          : GOPISAHI
Writing library                : x264 core 155 r2893 b00bcaf

Audio #1
Format                         : AAC
Bit rate                       : 75.0 kb/s
Channel(s)                     : 6 channels
Channel positions              : Front: L C R, Side: L R, LFE
Sampling rate                  : 44.1 kHz
Frame rate                     : 43.066 FPS (1024 SPF)
Compression mode               : Lossy
Stream size                    : 23.2 MiB (12%)
Title                          : GOPISAHI
Language                       : Tamil

Audio #2
Format                         : AAC
Bit rate                       : 84.0 kb/s
Channel(s)                     : 6 channels
Channel positions              : Front: L C R, Side: L R, LFE
Sampling rate                  : 44.1 kHz
Frame rate                     : 43.066 FPS (1024 SPF)
Compression mode               : Lossy
Stream size                    : 25.9 MiB (13%)
Title                          : GOPISAHI
Language                       : Hindi

Audio #3
Format                         : AAC
Bit rate                       : 75.4 kb/s
Channel(s)                     : 6 channels
Channel positions              : Front: L C R, Side: L R, LFE
Sampling rate                  : 44.1 kHz
Frame rate                     : 43.066 FPS (1024 SPF)
Compression mode               : Lossy
Stream size                    : 23.3 MiB (12%)
Language                       : English

Category:Movies > Hollywood Dub
Lang:Hindi
Total Size:393.40 MB
Info Hash:4189ad123cb5622d5e1a660fcecbd2346980436a
Added By:Unknown
Date Added:12-06-2018 11:45:42
Views:689
Hits:141

Download Torrent

Ratings:Not Yet Rated (Log in to rate it)


Tracker:
udp://9.rarbg.com:2740/announce


File List: 


Comments

No comments still posted

Powered by 10 Hamsters v2-svn -|- Page Generated In 0.234815 secs.
-|- RSS FEED
Theme By: Nikkbu