Harry Potter | Logic - Super Mario World.mp3 | Brian Drummond
[Login] or [Signup]
Login
Username:
Password:
[Signup]
[Recover Account]


Poll


You must be logged in to view polls



Torrent Details For "Baaghi (2018) UntoucheD WEBHD 720p Hindi H.264 AAC - LatestHDMovies"

Baaghi (2018) UntoucheD WEBHD 720p Hindi H.264 AAC - LatestHDMovies

Download this torrent | Magnet Download
Health:
Seeds: 1
Leechers: 0
Completed:
Last Checked: 11-06-2018 19:10:58
External Torrent
Update Stats
Download Magnet


Poster


iMDB
Imdb Picture Original Title: Baaghi 2
Title: Baaghi 2: Le rebelle
Year: 2018
Runtime: 137 minutes
Votes: 371
Rating: 5.7/10
Language: Hindi
Country: India
All Genres: Action, Thriller
Plot Outline: Ronny, is hired by ex-lover Neha, to track down her daughter Riya, who has been kidnapped.
Director: Ahmed Khan
Writing By: Hussain Dalal,Abbas Hirapurwala,Jojo Khan,Niraj Kumar Mishra,Sajid Nadiadwala,
Produced By: Bharat Bohra,Dipti Jindal,Rakesh Madhotra,Sajid Nadiadwala,Vikram Raazdan,Vijay Singh,
Music: Mithoon Julius Packiam
Cast:
Disha Patani as Neha
Tiger Shroff as Ronny
Randeep Hooda as
Manoj Bajpayee as
Lakshmi Manchu as
Prateik as
Paras Arora as
Darshan Kumar as
Shifuji Shaurya Bharadwaj as
Indraneel Bhattacharya as
Trailers:
Baaghi 2 Trailer


Watch-Free-HD     Download

Details
Name:Baaghi (2018) UntoucheD WEBHD 720p Hindi H.264 AAC - LatestHDMovies
Description:




[[>>SAMPLE<<]]
 http://oload.stream/f/QbDr5ur...8%29_SAMPLE.mp4-.mp4








General
Unique ID                   : 6252077082869004363795584651774569032 (0x4B41B32FE60545368E1E1AF7812AA48)
Complete name               : C:\Users\SHAHID\Downloads\Video\Baaghi (2018) UntoucheD WEBHD 720p Hindi H.264 AAC - LatestHDMovies.mkv
Format                      : Matroska
Format version              : Version 4 / Version 2
File size                   : 1.58 GiB
Duration                    : 2 h 14 min
Overall bit rate            : 1 676 kb/s
Movie name                  : LatestHDMovies | TeamSHAHID
Encoded date                : UTC 2018-06-11 17:57:19
Writing application         : mkvmerge v23.0.0 ('The Bride Said No') 32-bit
Writing library             : libebml v1.3.6 + libmatroska v1.4.9
Cover                       : Yes
Attachments                 : Cover.jpg

Video
ID                          : 1
Format                      : AVC
Format/Info                 : Advanced Video Codec
Format profile              : [email protected]
Format settings             : CABAC / 4 Ref Frames
Format settings, CABAC      : Yes
Format settings, ReFrames   : 4 frames
Codec ID                    : V_MPEG4/ISO/AVC
Duration                    : 2 h 14 min
Bit rate                    : 1 446 kb/s
Width                       : 1 280 pixels
Height                      : 720 pixels
Display aspect ratio        : 16:9
Frame rate mode             : Constant
Frame rate                  : 25.000 FPS
Color space                 : YUV
Chroma subsampling          : 4:2:0
Bit depth                   : 8 bits
Scan type                   : Progressive
Bits/(Pixel*Frame)          : 0.063
Stream size                 : 1.36 GiB (86%)
Title                       : LatestHDMovies | TeamSHAHID
Writing library             : x264 core 152 r19 ba24899
Encoding settings           : cabac=1 / ref=2 / deblock=1:0:0 / analyse=0x3:0x113 / me=hex / subme=6 / psy=1 / psy_rd=1.00:0.00 / mixed_ref=1 / me_range=16 / chroma_me=1 / trellis=1 / 8x8dct=1 / cqm=0 / deadzone=21,11 / fast_pskip=1 / chroma_qp_offset=-2 / threads=22 / lookahead_threads=3 / sliced_threads=0 / nr=0 / decimate=1 / interlaced=0 / bluray_compat=0 / constrained_intra=0 / bframes=3 / b_pyramid=2 / b_adapt=1 / b_bias=0 / direct=1 / weightb=1 / open_gop=0 / weightp=1 / keyint=125 / keyint_min=12 / scenecut=40 / intra_refresh=0 / rc_lookahead=30 / rc=crf / mbtree=1 / crf=23.0 / qcomp=0.60 / qpmin=0 / qpmax=69 / qpstep=4 / vbv_maxrate=2600 / vbv_bufsize=5200 / crf_max=0.0 / nal_hrd=none / filler=0 / ip_ratio=1.40 / aq=1:1.00
Default                     : Yes
Forced                      : No

Audio
ID                          : 2
Format                      : AAC
Format/Info                 : Advanced Audio Codec
Format profile              : LC
Codec ID                    : A_AAC-2
Duration                    : 2 h 14 min
Bit rate                    : 228 kb/s
Channel(s)                  : 2 channels
Channel positions           : Front: L R
Sampling rate               : 44.1 kHz
Frame rate                  : 43.066 FPS (1024 SPF)
Compression mode            : Lossy
Delay relative to video     : -23 ms
Stream size                 : 220 MiB (14%)
Title                       : LatestHDMovies | TeamSHAHID
Language                    : Hindi
Default                     : Yes
Forced                      : No



                             
Category:Movies > Bollywood
Lang:Hindi
Total Size:1.58 GB
Info Hash:cdf7b559521de49212be6db59401dd62a669e6dc
Added By:ShahidHasanzai
Date Added:11-06-2018 19:10:57
Views:294
Hits:47

Download Torrent

Ratings:Not Yet Rated (Log in to rate it)


Tracker:
http://z.crazyhd.com:2710/2ea85e0b733ceaf9aa500a961dc1be51/announce


File List: 


Comments

No comments still posted

Powered by 10 Hamsters v2-svn -|- Page Generated In 1.741308 secs.
-|- RSS FEED
Theme By: Nikkbu