優等性 | A Repartição do Tempo Assistir A Repartição do Tempo 720p Dublado/Nacional Online Num rincão esquecido da vasta burocracia brasileira, um chefe psicótico usa uma máquina do tempo para duplicar seu quadro de funcionários e aumentar a produtividade da repartição. Ver filme A Repartição do Tempo Dublado/Nacional Ver Filme A Repartição do Tempo Dublado/Nacional (2017) Assistir Filmes Online em HD Assista filmes online HD na sua tv e celular - ... | More Details
[Login] or [Signup]
Login
Username:
Password:
[Signup]
[Recover Account]


Poll


You must be logged in to view polls



Torrent Details For "Beyond.The.Sky.2018.720p.WEB-DL.MovCr"

Beyond.The.Sky.2018.720p.WEB-DL.MovCr

Download this torrent | Magnet Download
Health:
Seeds: 86
Leechers: 9
Completed: 554 
Last Checked: 12-06-2018 15:55:11
External Torrent
Update Stats
Download Magnet


Poster


iMDB
Imdb Picture Title: Beyond The Sky
Year: 2018
Runtime: 82 minutes
Language: English
Country: USA
All Genres: Mystery, Sci-Fi, Thriller
Plot Outline: While shooting a documentary to expose the lies of alien abductees, a provocative filmmaker and his crew encounter a young woman with a dark secret who leads them to uncover a disturbing truth.


Director: Fulvio Sestito
Writing By: Rebecca Berrih,Rebecca Berrih,Marc Porterfield,Marc Porterfield,Fulvio Sestito,Fulvio Sestito,Rob Warren Thomas,Rob Warren Thomas,
Produced By: Dany Berrih,David Berrih,Rebecca Berrih,Samuel Berrih,Gianni Biasetti Sr.,Rolland Bijaoui,Benoit Chalmel,Evan Cholfin,Nicolas Damianakis,Barron De Sanctis,Nathanael Eisenberg,Richard Esposito,Andy Henry,Marc Loven,Martine Melloul,Shawn Wallace,
Music: Don Davis
Cast:
Peter Stormare as Peter Norton
Jordan Hinson as Emily Reed
Dee Wallace as Lucille
Martin Sensmeier as Kyle Blackburn
Don Stark as Bill Johnson
Ryan Carnes as Chris Norton
Michael Benyaer as Dr. Maurice
Claude Duhamel as Brent
Danielle Burgio as Nell Norton
Toby Grey as Chris (7)


Watch-Free-HD     Download

Details
Name:Beyond.The.Sky.2018.720p.WEB-DL.MovCr
Description:
 www.movcr.com

 http://www.imdb.com/title/tt3665498/

 

General
Unique ID                   : 33767032780481738167544231318191538747 (0x19674B40BBC10CA94A0E687A78EF023B)
Complete name               : Beyond.The.Sky.2018.720p.WEB-DL.MovCr.mkv
Format                      : Matroska
Format version              : Version 4 / Version 2
File size                   : 652 MiB
Duration                    : 1 h 22 min
Overall bit rate            : 1 110 kb/s
Movie name                  : www.MovCr.com
Encoded date                : UTC 2018-06-11 07:15:57
Writing application         : mkvmerge v23.0.0 ('The Bride Said No') 64-bit
Writing library             : libebml v1.3.6 + libmatroska v1.4.9

Video
ID                          : 2
Format                      : AVC
Format/Info                 : Advanced Video Codec
Format profile              : [email protected]
Format settings, CABAC      : Yes
Format settings, ReFrames   : 5 frames
Codec ID                    : V_MPEG4/ISO/AVC
Duration                    : 1 h 22 min
Bit rate                    : 1 045 kb/s
Width                       : 1 280 pixels
Height                      : 638 pixels
Display aspect ratio        : 2.006
Frame rate mode             : Constant
Frame rate                  : 23.976 (24000/1001) FPS
Color space                 : YUV
Chroma subsampling          : 4:2:0
Bit depth                   : 8 bits
Scan type                   : Progressive
Bits/(Pixel*Frame)          : 0.053
Stream size                 : 614 MiB (94%)
Title                       : www.MovCr.com
Writing library             : x264 core 155 r2893 b00bcaf
Encoding settings           : cabac=1 / ref=5 / deblock=1:0:0 / analyse=0x3:0x113 / me=hex / subme=8 / psy=1 / psy_rd=1.00:0.00 / mixed_ref=1 / me_range=16 / chroma_me=1 / trellis=2 / 8x8dct=1 / cqm=0 / deadzone=21,11 / fast_pskip=1 / chroma_qp_offset=-2 / threads=20 / lookahead_threads=3 / sliced_threads=0 / nr=0 / decimate=1 / interlaced=0 / bluray_compat=0 / constrained_intra=0 / bframes=3 / b_pyramid=2 / b_adapt=1 / b_bias=0 / direct=3 / weightb=1 / open_gop=0 / weightp=2 / keyint=240 / keyint_min=24 / scenecut=40 / intra_refresh=0 / rc_lookahead=50 / rc=2pass / mbtree=1 / bitrate=1045 / ratetol=1.0 / qcomp=0.60 / qpmin=0 / qpmax=69 / qpstep=4 / cplxblur=20.0 / qblur=0.5 / vbv_maxrate=62500 / vbv_bufsize=78125 / nal_hrd=none / filler=0 / ip_ratio=1.40 / aq=1:1.00
Default                     : Yes
Forced                      : No
Color range                 : Limited
Color primaries             : BT.709
Transfer characteristics    : BT.709
Matrix coefficients         : BT.709

Audio
ID                          : 1
Format                      : AAC
Format/Info                 : Advanced Audio Codec
Format profile              : HE-AAC / LC
Codec ID                    : A_AAC
Duration                    : 1 h 22 min
Bit rate                    : 64.0 kb/s
Channel(s)                  : 2 channels
Channel positions           : Front: L R
Sampling rate               : 48.0 kHz / 24.0 kHz
Frame rate                  : 23.438 FPS (1024 spf)
Compression mode            : Lossy
Delay relative to video     : 31 ms
Stream size                 : 37.6 MiB (6%)
Title                       : www.MovCr.com
Language                    : English
Default                     : Yes
Forced                      : No

Menu
00:00:00.000                : :Chapter 1
00:16:38.498                : :Chapter 2
00:33:35.597                : :Chapter 3
00:53:48.183                : :Chapter 4
01:06:19.100                : :Chapter 5
01:18:07.266                : :Chapter 6



 
 
 
 
 
Category:Movies > WEB-HD
Lang:English  English
Total Size:652.21 MB
Info Hash:78d49afc6910254e2e99401678fa84b4331fb711
Added By:MAZE
Date Added:11-06-2018 08:33:48
Views:108
Hits:4

Download Torrent

Ratings:Not Yet Rated (Log in to rate it)


Tracker:
udp://tracker.openbittorrent.com:80/announce

This Torrent also has backup trackers
URLSeedersLeechersCompleted
http://share.camoe.cn:8080/announce000
http://t.nyaatracker.com:80/announce302
http://asnet.pw:2710/announce000
http://tracker.tfile.co:80/announce000
http://pt.lax.mx:80/announce000


File List: 


Comments

No comments still posted

Powered by 10 Hamsters v2-svn -|- Page Generated In 0.997644 secs.
-|- RSS FEED
Theme By: Nikkbu