優等性 | A Repartição do Tempo Assistir A Repartição do Tempo 720p Dublado/Nacional Online Num rincão esquecido da vasta burocracia brasileira, um chefe psicótico usa uma máquina do tempo para duplicar seu quadro de funcionários e aumentar a produtividade da repartição. Ver filme A Repartição do Tempo Dublado/Nacional Ver Filme A Repartição do Tempo Dublado/Nacional (2017) Assistir Filmes Online em HD Assista filmes online HD na sua tv e celular - ... | More Details
[Login] or [Signup]
Login
Username:
Password:
[Signup]
[Recover Account]


Poll


You must be logged in to view polls



Torrent Details For "Chamak (2017) Kannada 720p WEBHD AAC ESubs 2GB [MovCr Exclusive]"

Chamak (2017) Kannada 720p WEBHD AAC ESubs 2GB [MovCr Exclusive]

Download this torrent | Magnet Download
Health:
Seeds: 0
Leechers: 0
Completed:
Last Checked: 06-06-2018 10:36:24
External Torrent
Update Stats
Download Magnet


Poster


iMDB
Imdb Picture Title: Chamak
Year: 2017
Runtime: 155 minutes
Votes: 105
Rating: 7.9/10
Language: Kannada
Country: India
All Genres: Comedy
Plot Outline: Kush, a gynaecologist and a playboy refuses his family's wishes to marry because his freedom will be curtailed if he marries. He later marries Khushi, an innocent girl while acting as if he is also an innocent guy in front of her family.
Director: Suni
Writing By: Suni,
Produced By: Chandrashekar,
Music: Judah Sandy
Cast:
Ganesh as Kush
Rashmika Mandanna as Khushi
Sadhu Kokila as


Watch-Free-HD     Download

Details
Name:Chamak (2017) Kannada 720p WEBHD AAC ESubs 2GB [MovCr Exclusive]
Description:
Visit Our Website   www.movcr.com

 http://www.imdb.com/title/tt7838228/

 

General
Unique ID                   : 312250667356531215558472459097642261090 (0xEAE94A81B5332C72E247BA00F5365A62)
Complete name               : [www.MovCr.com]Chamak (2017) Kannada 720p WEBHD AAC ESubs 2GB [MovCr]\www.MovCr.com-Chamak (2017) Kannada 720p WEBHD AAC 2GB ESubs[MovCr].mkv
Format                      : Matroska
Format version              : Version 4 / Version 2
File size                   : 1.98 GiB
Duration                    : 2 h 19 min
Overall bit rate            : 2 043 kb/s
Movie name                  : www.MovCr.com
Encoded date                : UTC 2018-06-06 09:27:36
Writing application         : mkvmerge v23.0.0 ('The Bride Said No') 64-bit
Writing library             : libebml v1.3.6 + libmatroska v1.4.9

Video
ID                          : 1
Format                      : AVC
Format/Info                 : Advanced Video Codec
Format profile              : [email protected]
Format settings, CABAC      : No
Format settings, ReFrames   : 5 frames
Format settings, GOP        : M=1, N=50
Codec ID                    : V_MPEG4/ISO/AVC
Duration                    : 2 h 19 min
Bit rate mode               : Constant
Bit rate                    : 2 000 kb/s
Width                       : 1 280 pixels
Height                      : 720 pixels
Display aspect ratio        : 16:9
Frame rate mode             : Constant
Frame rate                  : 25.000 FPS
Color space                 : YUV
Chroma subsampling          : 4:2:0
Bit depth                   : 8 bits
Scan type                   : Progressive
Bits/(Pixel*Frame)          : 0.087
Stream size                 : 1.92 GiB (97%)
Title                       : www.MovCr.com
Default                     : Yes
Forced                      : No

Audio
ID                          : 2
Format                      : AAC
Format/Info                 : Advanced Audio Codec
Format profile              : LC
Codec ID                    : A_AAC
Duration                    : 2 h 19 min
Bit rate                    : 61.4 kb/s
Channel(s)                  : 2 channels
Channel positions           : Front: L R
Sampling rate               : 48.0 kHz
Frame rate                  : 46.875 FPS (1024 spf)
Compression mode            : Lossy
Delay relative to video     : -33 ms
Stream size                 : 61.0 MiB (3%)
Title                       : www.MovCr.com
Language                    : Kannada
Default                     : Yes
Forced                      : No

Text
ID                          : 3
Format                      : S_TEXT/WEBVTT
Codec ID                    : S_TEXT/WEBVTT
Duration                    : 2 h 16 min
Bit rate                    : 121 b/s
Count of elements           : 2488
Stream size                 : 122 KiB (0%)
Title                       : www.MovCr.com
Language                    : English
Default                     : Yes
Forced                      : No



 
 
 
 
 
 
 
 
 
 
Category:Movies > WEB-HD
Lang:Kannada
Total Size:1.98 GB
Info Hash:fdcc8ba41681949b0be707a95f3f0730bc237d13
Added By:MAZE
Date Added:06-06-2018 10:36:24
Views:177
Hits:11

Download Torrent

Ratings:Not Yet Rated (Log in to rate it)


Tracker:
udp://tracker.openbittorrent.com:80/announce

This Torrent also has backup trackers
URLSeedersLeechersCompleted
http://share.camoe.cn:8080/announce000
http://t.nyaatracker.com:80/announce000
http://asnet.pw:2710/announce000
http://tracker.tfile.co:80/announce000
http://pt.lax.mx:80/announce000


File List: 


Comments

No comments still posted

Powered by 10 Hamsters v2-svn -|- Page Generated In 1.895191 secs.
-|- RSS FEED
Theme By: Nikkbu