Ein Kind mit Namen Jesus | Bo Svenson | The Nativity
[Login] or [Signup]
Login
Username:
Password:
[Signup]
[Recover Account]


Poll


You must be logged in to view polls



Torrent Details For "Tomb.Raider.2018.720p.WEB-DL.ESubs.MovCr.com"

Tomb.Raider.2018.720p.WEB-DL.ESubs.MovCr.com

Download this torrent | Magnet Download
Health:
Seeds: 74
Leechers: 280
Completed: 78 
Last Checked: 29-05-2018 10:13:09
External Torrent
Update Stats
Download Magnet


Poster


iMDB
Imdb Picture Title: Tomb Raider
Year: 2018
Runtime: 118 minutes
Votes: 3268
Rating: 7.5/10
Language: English
Country: UK, USA
All Genres: Action, Adventure
Plot Outline: Lara Croft, the fiercely independent daughter of a missing adventurer, must push herself beyond her limits when she finds herself on the island where her father disappeared.
Tagline: Her legend begins.
Director: Roar Uthaug
Writing By: Geneva Robertson-Dworet,Alastair Siddons,Evan Daugherty,Geneva Robertson-Dworet,
Produced By: Noah Hughes,Graham King,Patrick McCormick,Denis O'Sullivan,
Music: Junkie XL
Cast:
Alicia Vikander as Lara Croft
Dominic West as Lord Richard Croft
Walton Goggins as Mathias Vogel
Daniel Wu as Lu Ren
Kristin Scott Thomas as Ana Miller
Derek Jacobi as Mr. Yaffe
Alexandre Willaume as Lieutenant
Tamer Burjaq as Mercenary
Adrian Collins as Mercenary
Keenan Arrison as Mercenary
Trailers:
International Trailer #2
Trailer #1


Watch-Free-HD     Download

Details
Name:Tomb.Raider.2018.720p.WEB-DL.ESubs.MovCr.com
Description:


 http://www.imdb.com/title/tt1365519/

 

General
Unique ID                   : 171614654537908497521795496898551380575 (0x811BC7BBA5BF61AD75BF9DB0FD387A5F)
Complete name               : Tomb.Raider.2018.720p.WEB-DL.ESubs.MovCr.com.mkv
Format                      : Matroska
Format version              : Version 4 / Version 2
File size                   : 952 MiB
Duration                    : 1 h 57 min
Overall bit rate            : 1 130 kb/s
Movie name                  : www.MovCr.com
Encoded date                : UTC 2018-05-29 07:04:25
Writing application         : mkvmerge v23.0.0 ('The Bride Said No') 64-bit
Writing library             : libebml v1.3.6 + libmatroska v1.4.9

Video
ID                          : 3
Format                      : AVC
Format/Info                 : Advanced Video Codec
Format profile              : [email protected]
Format settings, CABAC      : Yes
Format settings, ReFrames   : 5 frames
Codec ID                    : V_MPEG4/ISO/AVC
Duration                    : 1 h 57 min
Bit rate                    : 1 065 kb/s
Width                       : 1 280 pixels
Height                      : 534 pixels
Display aspect ratio        : 2.40:1
Frame rate mode             : Constant
Frame rate                  : 23.976 (24000/1001) FPS
Color space                 : YUV
Chroma subsampling          : 4:2:0
Bit depth                   : 8 bits
Scan type                   : Progressive
Bits/(Pixel*Frame)          : 0.065
Stream size                 : 897 MiB (94%)
Title                       : www.MovCr.com
Writing library             : x264 core 155 r2893 b00bcaf
Encoding settings           : cabac=1 / ref=5 / deblock=1:0:0 / analyse=0x3:0x113 / me=hex / subme=8 / psy=1 / psy_rd=1.00:0.00 / mixed_ref=1 / me_range=16 / chroma_me=1 / trellis=2 / 8x8dct=1 / cqm=0 / deadzone=21,11 / fast_pskip=1 / chroma_qp_offset=-2 / threads=17 / lookahead_threads=2 / sliced_threads=0 / nr=0 / decimate=1 / interlaced=0 / bluray_compat=0 / constrained_intra=0 / bframes=3 / b_pyramid=2 / b_adapt=1 / b_bias=0 / direct=3 / weightb=1 / open_gop=0 / weightp=2 / keyint=240 / keyint_min=24 / scenecut=40 / intra_refresh=0 / rc_lookahead=50 / rc=2pass / mbtree=1 / bitrate=1065 / ratetol=1.0 / qcomp=0.60 / qpmin=0 / qpmax=69 / qpstep=4 / cplxblur=20.0 / qblur=0.5 / vbv_maxrate=62500 / vbv_bufsize=78125 / nal_hrd=none / filler=0 / ip_ratio=1.40 / aq=1:1.00
Default                     : Yes
Forced                      : No
Color range                 : Limited
Color primaries             : BT.709
Transfer characteristics    : BT.709
Matrix coefficients         : BT.709

Audio
ID                          : 1
Format                      : AAC
Format/Info                 : Advanced Audio Codec
Format profile              : HE-AAC / LC
Codec ID                    : A_AAC
Duration                    : 1 h 57 min
Bit rate                    : 63.9 kb/s
Channel(s)                  : 2 channels
Channel positions           : Front: L R
Sampling rate               : 48.0 kHz / 24.0 kHz
Frame rate                  : 23.438 FPS (1024 spf)
Compression mode            : Lossy
Delay relative to video     : 31 ms
Stream size                 : 53.8 MiB (6%)
Title                       : www.MovCr.com
Language                    : English
Default                     : Yes
Forced                      : No

Text
ID                          : 2
Format                      : UTF-8
Codec ID                    : S_TEXT/UTF8
Codec ID/Info               : UTF-8 Plain Text
Duration                    : 1 h 50 min
Bit rate                    : 30 b/s
Count of elements           : 943
Stream size                 : 25.1 KiB (0%)
Title                       : www.MovCr.com
Language                    : English
Default                     : Yes
Forced                      : No

Menu
00:00:00.000                : :1
00:06:50.076                : :2
00:11:41.034                : :3
00:17:28.047                : :4
00:24:04.068                : :5
00:30:42.049                : :6
00:35:42.015                : :7
00:41:38.079                : :8
00:46:55.021                : :9
00:53:42.052                : :10
00:59:38.075                : :11
01:04:50.053                : :12
01:09:58.027                : :13
01:16:50.064                : :14
01:21:50.072                : :15
01:27:41.047                : :16
01:32:56.071                : :17
01:38:41.040                : :18
01:44:44.069                : :19
01:51:20.007                : :20



 
 
 
 
 
 
Category:Movies > WEB-HD
Lang:English  English
Total Size:952.48 MB
Info Hash:7961239c09430a0556bd30f57fbc9e4c02e18494
Added By:MAZE
Date Added:29-05-2018 08:13:51
Views:215
Hits:25

Download Torrent

Ratings:Not Yet Rated (Log in to rate it)


Tracker:
udp://tracker.openbittorrent.com:80/announce

This Torrent also has backup trackers
URLSeedersLeechersCompleted
http://share.camoe.cn:8080/announce000
http://t.nyaatracker.com:80/announce000
http://asnet.pw:2710/announce000
http://tracker.tfile.co:80/announce007
http://pt.lax.mx:80/announce000


File List: 


Comments

No comments still posted

Powered by 10 Hamsters v2-svn -|- Page Generated In 1.131905 secs.
-|- RSS FEED
Theme By: Nikkbu