Sunday, July 12, 2015 | > Regarder Harry Potter et la Chambre des Secrets gratuitement | Globalization and Education - 1104 Words
[Login] or [Signup]
Login
Username:
Password:
[Signup]
[Recover Account]


Poll


You must be logged in to view polls



Torrent Details For "Aiyaary (2018) Hindi 720p Untouched WEBHD x264 AAC 4GB ESubs [MovCR]"

Aiyaary (2018) Hindi 720p Untouched WEBHD x264 AAC 4GB ESubs [MovCR]

Download this torrent | Magnet Download
Health:
Seeds: 171
Leechers: 133
Completed: 162 
Last Checked: 16-05-2018 09:26:04
External Torrent
Update Stats
Download Magnet


Poster


iMDB
Imdb Picture Title: Aiyaary
Year: 2018
Runtime: 157 minutes
Votes: 490
Rating: 5.2/10
Language: Hindi
Country: India
All Genres: Action, Crime, Drama, Thriller
Plot Outline: Two officers with patriotic hearts suddenly have a fallout. The mentor, Colonel Abhay Singh has complete faith in the country's system while protégé Major Jai Bakshi thinks differently due to a recent stint in surveillance.
Director: Neeraj Pandey
Writing By: Neeraj Pandey,
Produced By: Shital Bhatia,Ashwani Chopra,Akshay Gada,Dhaval Gada,Karan Shah,
Music: Sanjoy Chowdhury
Cast:
Anupam Kher as Tariq Ali
Sidharth Malhotra as Jai Bakshi
Naseeruddin Shah as Baburao Shastri
Rakul Preet Singh as Sonia Gupta
Manoj Bajpayee as Abhay Singh
Simon Bond as Agent John 57
Adil Hussain as Mukesh Kapoor
Atul Sharma as Airline Passenger
Kumud Mishra as Gurinder Singh
Juke Hardy as Commando
Trailers:
Aiyaary Trailer
'Aiyaary' Trailer With Director Neeraj Pandey's Commentary


Watch-Free-HD     Download

Details
Name:Aiyaary (2018) Hindi 720p Untouched WEBHD x264 AAC 4GB ESubs [MovCR]
Description:
Visit   www.movcr.com

Aiyaary (2018) Hindi 720p Untouched WEBHD x264 AAC 4GB ESubs [MovCR]

IMDB Link   http://www.imdb.com/title/tt6774212/

 

General
Unique ID                   : 181696601501692241136126045971426809453 (0x88B17E18944D27F76CB3E2D5A603966D)
Complete name               : [www.MovCR.com] Aiyaary (2018) Hindi 720p Untouched WEBHD x264 AAC 4GB [MovCR]\www.MovCR.com - Aiyaary (2018) Hindi 720p Untouched WEBHD x264 AAC 4GB [MovCR].mkv
Format                      : Matroska
Format version              : Version 4 / Version 2
File size                   : 3.89 GiB
Duration                    : 2 h 38 min
Overall bit rate mode       : Variable
Overall bit rate            : 3 520 kb/s
Movie name                  : www.MovCR.com
Encoded date                : UTC 2018-05-15 12:10:55
Writing application         : mkvmerge v23.0.0 ('The Bride Said No') 64-bit
Writing library             : libebml v1.3.6 + libmatroska v1.4.9

Video
ID                          : 1
Format                      : AVC
Format/Info                 : Advanced Video Codec
Format profile              : [email protected]
Format settings, CABAC      : Yes
Format settings, ReFrames   : 3 frames
Format settings, GOP        : M=3, N=48
Codec ID                    : V_MPEG4/ISO/AVC
Duration                    : 2 h 38 min
Bit rate mode               : Variable
Bit rate                    : 3 160 kb/s
Maximum bit rate            : 4 740 kb/s
Width                       : 1 280 pixels
Height                      : 720 pixels
Display aspect ratio        : 16:9
Frame rate mode             : Constant
Frame rate                  : 23.976 (24000/1001) FPS
Color space                 : YUV
Chroma subsampling          : 4:2:0
Bit depth                   : 8 bits
Scan type                   : Progressive
Bits/(Pixel*Frame)          : 0.143
Stream size                 : 3.46 GiB (89%)
Title                       : www.MovCR.com
Writing library             : x264 core 148 r2715 7e75228
Encoding settings           : cabac=1 / ref=3 / deblock=1:0:0 / analyse=0x1:0x111 / me=umh / subme=10 / psy=1 / psy_rd=1.00:0.00 / mixed_ref=1 / me_range=24 / chroma_me=1 / trellis=2 / 8x8dct=0 / cqm=0 / deadzone=21,11 / fast_pskip=1 / chroma_qp_offset=-2 / threads=8 / lookahead_threads=1 / sliced_threads=0 / nr=0 / decimate=1 / interlaced=0 / bluray_compat=0 / stitchable=1 / constrained_intra=0 / bframes=2 / b_pyramid=0 / b_adapt=2 / b_bias=0 / direct=3 / weightb=1 / open_gop=0 / weightp=2 / keyint=48 / keyint_min=25 / scenecut=0 / intra_refresh=0 / rc_lookahead=48 / rc=2pass / mbtree=1 / bitrate=3160 / ratetol=1.0 / qcomp=0.50 / qpmin=6 / qpmax=51 / qpstep=4 / cplxblur=20.0 / qblur=0.5 / vbv_maxrate=4740 / vbv_bufsize=6320 / nal_hrd=vbr / filler=0 / ip_ratio=1.40 / aq=1:1.00
Default                     : Yes
Forced                      : No

Audio
ID                          : 2
Format                      : AC-3
Format/Info                 : Audio Coding 3
Mode extension              : CM (complete main)
Format settings, Endianness : Big
Codec ID                    : A_AC3
Duration                    : 2 h 38 min
Bit rate mode               : Constant
Bit rate                    : 384 kb/s
Channel(s)                  : 6 channels
Channel positions           : Front: L C R, Side: L R, LFE
Sampling rate               : 48.0 kHz
Frame rate                  : 31.250 FPS (1536 spf)
Bit depth                   : 16 bits
Compression mode            : Lossy
Stream size                 : 434 MiB (11%)
Title                       : www.MovCR.com
Language                    : Hindi
Default                     : Yes
Forced                      : No

Text
ID                          : 3
Format                      : UTF-8
Codec ID                    : S_TEXT/UTF8
Codec ID/Info               : UTF-8 Plain Text
Duration                    : 2 h 29 min
Bit rate                    : 46 b/s
Count of elements           : 1657
Stream size                 : 51.3 KiB (0%)
Title                       : www.MovCR.com
Language                    : English
Default                     : Yes
Forced                      : No



 
 
 
 
 
 
 
 
Category:Movies > Bollywood
Lang:Hindi
Total Size:3.89 GB
Info Hash:8b310ba268378d3c747e65980be0907260a58484
Added By:MAZE
Date Added:15-05-2018 13:20:53
Views:431
Hits:70

Download Torrent

Ratings:Not Yet Rated (Log in to rate it)


Tracker:
udp://tracker.openbittorrent.com:80/announce

This Torrent also has backup trackers
URLSeedersLeechersCompleted
http://t.nyaatracker.com:80/announce651
http://asnet.pw:2710/announce000
http://tracker.tfile.co:80/announce000
http://pt.lax.mx:80/announce000
http://tracker.bt-hash.com:443/announce000
http://grifon.info:80/announce000
http://retracker.spark-rostov.ru:80/announce000
http://tr.kxmp.cf:80/announce000
http://tracker.city9x.com:2710/announce743
http://tracker.tfile.me:80/announce000
http://retracker.telecom.by:80/announce000
http://tracker.electro-torrent.pl:80/announce221
http://open.kickasstracker.com:443/announce641
http://retracker.mgts.by:80/announce743
http://retracker.bashtel.ru:80/announce000
http://tracker.devil-torrents.pl:80/announce000
http://torrentsmd.eu:8080/announce000
http://ns349743.ip-91-121-106.eu:80/announce000
http://torrentsmd.me:8080/announce000
http://agusiq-torrents.pl:6969/announce7313
http://fxtt.ru:80/announce424


File List: 


Comments

No comments still posted

Powered by 10 Hamsters v2-svn -|- Page Generated In 1.617938 secs.
-|- RSS FEED
Theme By: Nikkbu