Ben-Hur (2016) | watch online Watch Danger One english online free | SOP FOR MS in computer science
[Login] or [Signup]
Login
Username:
Password:
[Signup]
[Recover Account]


Poll


You must be logged in to view polls



Torrent Details For "Hate Story 4 2018 Hindi 720p HDRip x264 AAC { TaRa }.mkv"

Hate Story 4 2018 Hindi 720p HDRip x264 AAC { TaRa }.mkv

Download this torrent | Magnet Download
Health:
Seeds: 415
Leechers: 212
Completed: 3,776 
Last Checked: 19-05-2018 08:16:05
External Torrent
Update Stats
Download Magnet


Poster


iMDB
Imdb Picture Title: Hate Story IV
Year: 2018
Runtime: 131 minutes
Votes: 35
Rating: 3.8/10
Language: Hindi
Country: India
All Genres: Crime, Drama, Thriller
Plot Outline: The fourth installment of the 'Hate Story' franchise.
Tagline: two brothers fight for the same girl who looks innocent from outside but she have sinister plan of revenge
Director: Vishal Pandya
Writing By: Vishal Pandya,Vishal Pandya,Sameer Arora,Milap Zaveri,
Produced By: Vivek Bhatnagar,Sam Bhattacharjee,Hanif Chunawala,Bhushan Kumar,Krishan Kumar,
Music: Inder Bawra Sunny Bawra
Cast:
Urvashi Rautela as Tasha
Gulshan Grover as Vikram Kurana
Daniel Eghan as Rich Hotel Guest
Vivan Bhatena as
Ihana Dhillon as
Atul Sharma as Millionaire Hotel Guest
Zenia Starr as
Lee Nicholas Harris as Police officer 401
Rita Siddiqui as Monica
Ayvianna Snow as Newsreader
Trailers:
Hate Story 4 Trailer


Watch-Free-HD     Download

Details
Name:Hate Story 4 2018 Hindi 720p HDRip x264 AAC { TaRa }.mkv
Description:

Hate Story 4 2018 Hindi 720p HDRip x264 AAC { TaRa }.mkv
 

===================================================================
General
Complete name               : Hate Story 4 2018 Hindi 720p HDRip x264 AAC { TaRa }.mkv
Format                      : Matroska
Format version              : Version 4 / Version 2
File size                   : 1.16 GiB
Duration                    : 2 h 7 min
Overall bit rate            : 1 305 kb/s
===================================================================
Video
ID                          : 1
Format                      : AVC
Format/Info                 : Advanced Video Codec
Format profile              : [email protected]
Format settings             : CABAC / 5 Ref Frames
Format settings, CABAC      : Yes
Format settings, ReFrames   : 5 frames
Codec ID                    : V_MPEG4/ISO/AVC
Duration                    : 2 h 7 min
Bit rate                    : 1 152 kb/s
Width                       : 1 280 pixels
Height                      : 544 pixels
Display aspect ratio        : 2.35:1
Frame rate mode             : Constant
Frame rate                  : 30.000 FPS
Color space                 : YUV
Chroma subsampling          : 4:2:0
Bit depth                   : 8 bits
Scan type                   : Progressive
Bits/(Pixel*Frame)          : 0.055
Stream size                 : 1.02 GiB (88%)
Title                       : .....::::: TaRa :::::.....
Language                    : Hindi
Default                     : Yes
Forced                      : No
===================================================================
Audio
ID                          : 2
Format                      : AAC
Format/Info                 : Advanced Audio Codec
Format profile              : LC
Codec ID                    : A_AAC-2
Duration                    : 2 h 7 min
Bit rate                    : 158 kb/s
Channel(s)                  : 2 channels
Channel positions           : Front: L R
Sampling rate               : 44.1 kHz
Frame rate                  : 43.066 FPS (1024 SPF)
Compression mode            : Lossy
Stream size                 : 144 MiB (12%)
Title                       : .....::::: TaRa :::::.....
Language                    : Hindi
Default                     : Yes
Forced                      : No
===================================================================


 
 
 
 
 
 
 
 
 
 
 
 











 


Category:Movies > Bollywood
Lang:Hindi
Total Size:1.16 GB
Info Hash:a7a885c81b954b0d235e3b02af76e3f6134c260b
Added By:SkTaRa
Date Added:12-05-2018 19:33:36
Views:1,928
Hits:463

Download Torrent

Ratings:Not Yet Rated (Log in to rate it)

  


Tracker:
udp://tracker.coppersurfer.tk:6969/announce


File List: 


Comments

No comments still posted

Powered by 10 Hamsters v2-svn -|- Page Generated In 3.573344 secs.
-|- RSS FEED
Theme By: Nikkbu