Shahs Of Sunset S04E12 Bubbles Of Fertility | Ask GBAtemp! | USA | Hong Kong
[Login] or [Signup]
Login
Username:
Password:
[Signup]
[Recover Account]


Poll


You must be logged in to view polls



Torrent Details For "Hello Brother (1999) Hindi 720p -=!ARIF HD 241 R-B!=-"

Hello Brother (1999) Hindi 720p -=!ARIF HD 241 R-B!=-

Download this torrent | Magnet Download
Health:
Seeds: 0
Leechers: 9
Completed:
Last Checked: 05-05-2018 04:15:35
External Torrent
Update Stats
Download Magnet


Poster


iMDB
Imdb Picture Title: Hello Brother
Year: 1999
Runtime: 139 minutes
Votes: 3096
Rating: 4.8/10
Language: Hindi
Country: India
All Genres: Action, Comedy, Romance
Plot Outline: Hero (Salman Khan) loves Rani (Rani Mukerji), but she doesn't. Hero, meanwhile, is a loyal worker at A-Z, a courier company helm ed by baddie Khanna (Shakti Kapoor). The man actually ...
Director: Sohail Khan
Writing By: Sohail Khan,Sohail Khan,Sohail Khan,
Produced By: Sohail Khan,Bunty Walia,
Music: Sajid Ali Himesh Reshammiya
Cast:
Salman Khan as Hero
Rani Mukerji as Rani
Arbaaz Khan as Inspector Vishal
Johnny Lever as Havaldar Hatella
Neeraj Vora as Senior Police Inspector
Shakti Kapoor as Khanna
Razak Khan as
Sulabha Arya as Rani's Mom
Dinyar Tirandaz as Doctor
Mukhtar Khan as


Watch-Free-HD     Download

Details
Name:Hello Brother (1999) Hindi 720p -=!ARIF HD 241 R-B!=-
Description:
Media Info


Complete name               :Hello Brother (1999) Hindi 720p -=!ARIF HD 241 R-B!=-.MP4
Format                      : MPEG-4
Format profile              : Base Media
Codec ID                    : isom (isom/iso2/avc1/mp41)
File size                   : 1.37 GiB
Duration                    : 2 h 13 min
Overall bit rate mode       : Variable
Overall bit rate            : 1 463 kb/s
Encoded date                : UTC 2018-04-18 21:37:20
Tagged date                 : UTC 2018-04-18 21:37:20

Video
ID                          : 1
Format                      : AVC
Format/Info                 : Advanced Video Codec
Format profile              : [email protected]
Format settings             : CABAC / 3 Ref Frames
Format settings, CABAC      : Yes
Format settings, ReFrames   : 3 frames
Codec ID                    : avc1
Codec ID/Info               : Advanced Video Coding
Duration                    : 2 h 13 min
Source duration             : 2 h 13 min
Bit rate                    : 1 334 kb/s
Width                       : 1 920 pixels
Height                      : 1 080 pixels
Display aspect ratio        : 16:9
Frame rate mode             : Constant
Frame rate                  : 25.000 FPS
Color space                 : YUV
Chroma subsampling          : 4:2:0
Bit depth                   : 8 bits
Scan type                   : Progressive
Bits/(Pixel*Frame)          : 0.026
Stream size                 : 1.25 GiB (91%)
Source stream size          : 1.25 GiB (91%)
Encoded date                : UTC 2018-04-18 21:37:20
Tagged date                 : UTC 2018-04-18 21:37:20
Color range                 : Limited
Color primaries             : BT.709
Transfer characteristics    : BT.709
Matrix coefficients         : BT.709

Audio
ID                          : 2
Format                      : AAC
Format/Info                 : Advanced Audio Codec
Format profile              : LC
Codec ID                    : mp4a-40-2
Duration                    : 2 h 13 min
Bit rate mode               : Variable
Bit rate                    : 126 kb/s
Channel(s)                  : 2 channels
Channel positions           : Front: L R
Sampling rate               : 44.1 kHz
Frame rate                  : 43.066 FPS (1024 SPF)
Compression mode            : Lossy
Stream size                 : 120 MiB (9%)
Language                    : English
Default                     : Yes
Alternate group             : 1
Encoded date                : UTC 2018-04-18 21:24:55
Tagged date                 : UTC 2018-04-18 21:24:55

Screen Short










Category:Movies > Bollywood
Lang:Hindi
Total Size:1.37 GB
Info Hash:ad24b72de60e37298e3c0632f88a10fc026bdea2
Added By:Unknown
Date Added:26-04-2018 15:27:43
Views:569
Hits:145

Download Torrent

Ratings:Not Yet Rated (Log in to rate it)


Tracker:
udp://tracker.openbittorrent.com:80/announce


File List: 


Comments

No comments still posted

Powered by 10 Hamsters v2-svn -|- Page Generated In 0.618360 secs.
-|- RSS FEED
Theme By: Nikkbu