Flying Witch BD Sub Indo Batch Eps 1-12 Lengkap | O Motorista de Táxi DUBLADO E LEGENDADO ONLINE | Wildes Italien
[Login] or [Signup]
Login
Username:
Password:
[Signup]
[Recover Account]


Poll


You must be logged in to view polls



Torrent Details For "6 Athiyayam (2018) Tamil HDRip - 700MB - x264 - MP3 - MovCr"

6 Athiyayam (2018) Tamil HDRip - 700MB - x264 - MP3 - MovCr

Download this torrent | Magnet Download
Health:
Seeds: 0
Leechers: 0
Completed: 72 
Last Checked: 11-09-2018 21:33:12
External Torrent
Update Stats
Download Magnet


Poster


iMDB
Imdb Picture Title: 6 Athiyayam
Year: 2018
Runtime: 118 minutes
Votes: 5
Rating: 6.4/10
Language: Tamil
Country: India
All Genres: Horror
Tagline: Fear comes in 6 ways
Director: Ajayan Bala
Lokesh Rajendran
Cable Sankar
Eav Suresh
Shankar Thiyagarajan
Sridhar Venkatesan
Writing By: Ajayan Bala,Cable Sankar,
Produced By: Shankar Thiyagarajan,
Cast:
Vinodh Kishan as
Kishore as
Thaman Kumar as
Cable Sankar as
Sathanya as


Watch-Free-HD     Download

Details
Name:6 Athiyayam (2018) Tamil HDRip - 700MB - x264 - MP3 - MovCr
Description:
6 Athiyayam (2018) Tamil HDRip - 700MB - x264 - MP3 - MovCr

 http://www.imdb.com/title/tt7968170/

 
General
Complete name                            : www.movcr.com - 6 Athiyayam (2018) Tamil HDRip - 700MB - x264 - MP3 - MovCr.mkv
Format                                   : Matroska
Format version                           : Version 4 / Version 2
File size                                : 698 MiB
Duration                                 : 1 h 55 min
Overall bit rate mode                    : Variable
Overall bit rate                         : 842 kb/s
Movie name                               : www.movcr.com
Encoded date                             : UTC 2018-03-01 04:40:07
Writing application                      : mkvmerge v20.0.0 ('I Am The Sun') 64-bit
Writing library                          : libebml v1.3.5 + libmatroska v1.4.8

Video
ID                                       : 1
Format                                   : AVC
Format/Info                              : Advanced Video Codec
Format profile                           : [email protected]
Format settings                          : CABAC / 4 Ref Frames
Format settings, CABAC                   : Yes
Format settings, RefFrames               : 4 frames
Codec ID                                 : V_MPEG4/ISO/AVC
Duration                                 : 1 h 55 min
Bit rate                                 : 752 kb/s
Width                                    : 720 pixels
Height                                   : 302 pixels
Display aspect ratio                     : 2.40:1
Frame rate mode                          : Constant
Frame rate                               : 25.000 FPS
Color space                              : YUV
Chroma subsampling                       : 4:2:0
Bit depth                                : 8 bits
Scan type                                : Progressive
Bits/(Pixel*Frame)                       : 0.138
Stream size                              : 623 MiB (89%)
Title                                    : www.movcr.com
Writing library                          : x264 core 148 r2708 86b7198
Encoding settings                        : cabac=1 / ref=2 / deblock=1:0:0 / analyse=0x1:0x111 / me=hex / subme=6 / psy=1 / psy_rd=1.00:0.00 / mixed_ref=1 / me_range=16 / chroma_me=1 / trellis=1 / 8x8dct=0 / cqm=0 / deadzone=21,11 / fast_pskip=1 / chroma_qp_offset=-2 / threads=9 / lookahead_threads=1 / sliced_threads=0 / nr=0 / decimate=1 / interlaced=0 / bluray_compat=0 / constrained_intra=0 / bframes=3 / b_pyramid=2 / b_adapt=1 / b_bias=0 / direct=1 / weightb=1 / open_gop=0 / weightp=1 / keyint=250 / keyint_min=25 / scenecut=40 / intra_refresh=0 / rc_lookahead=30 / rc=2pass / mbtree=1 / bitrate=752 / ratetol=1.0 / qcomp=0.60 / qpmin=0 / qpmax=69 / qpstep=4 / cplxblur=20.0 / qblur=0.5 / vbv_maxrate=20000 / vbv_bufsize=25000 / nal_hrd=none / filler=0 / ip_ratio=1.40 / aq=1:1.00
Language                                 : Tamil
Default                                  : Yes
Forced                                   : No
Color range                              : Limited
Color primaries                          : BT.709
Transfer characteristics                 : BT.709
Matrix coefficients                      : BT.709

Audio
ID                                       : 2
Format                                   : MPEG Audio
Format version                           : Version 1
Format profile                           : Layer 3
Format settings                          : Joint stereo / MS Stereo
Codec ID                                 : A_MPEG/L3
Codec ID/Hint                            : MP3
Duration                                 : 1 h 55 min
Bit rate mode                            : Variable
Bit rate                                 : 88.2 kb/s
Nominal bit rate                         : 96.0 kb/s
Channel(s)                               : 2 channels
Sampling rate                            : 44.1 kHz
Frame rate                               : 38.281 FPS (1152 SPF)
Compression mode                         : Lossy
Stream size                              : 73.1 MiB (10%)
Title                                    : www.movcr.com
Writing library                          : LAME3.99r
Encoding settings                        : -m j -V 4 -q 3 -lowpass 15.1 --abr 96
Language                                 : Tamil
Default                                  : Yes
Forced                                   : No


 
 
 
 
 
 
 
Category:Movies > Tamil
Lang:Tamil
Total Size:697.58 MB
Info Hash:7fc9861c151fcf7cbffeaddc07953a779c851403
Added By:MAZE
Date Added:28-02-2018 15:50:16
Views:855
Hits:29

Download Torrent

Ratings:Not Yet Rated (Log in to rate it)


Tracker:
udp://tracker.openbittorrent.com:80/announce

This Torrent also has backup trackers
URLSeedersLeechersCompleted
http://share.camoe.cn:8080/announce000
http://t.nyaatracker.com:80/announce100
http://asnet.pw:2710/announce000
http://tracker.tfile.co:80/announce000
http://pt.lax.mx:80/announce000
http://tracker.bt-hash.com:443/announce000
http://grifon.info:80/announce000
http://retracker.spark-rostov.ru:80/announce000
http://tr.kxmp.cf:80/announce000
http://tracker.city9x.com:2710/announce0028
http://tracker.tfile.me:80/announce000
http://retracker.telecom.by:80/announce000
http://tracker.electro-torrent.pl:80/announce100
http://open.kickasstracker.com:443/announce000
http://retracker.mgts.by:80/announce0029
http://retracker.bashtel.ru:80/announce000
http://tracker.devil-torrents.pl:80/announce000
http://torrentsmd.eu:8080/announce000
http://ns349743.ip-91-121-106.eu:80/announce000
http://torrentsmd.me:8080/announce000
http://agusiq-torrents.pl:6969/announce000
http://fxtt.ru:80/announce000


File List: 


Comments

No comments still posted

Powered by 10 Hamsters v2-svn -|- Page Generated In 1.197845 secs.
-|- RSS FEED
Theme By: Nikkbu