Fast.N.Loud.S05E08.Der.59er.Ford.F.100.Teil.2.GERMAN.DOKU.720p.WEB.x264-MOUSECLiCK | Nowy moderator | Unternehmen
[Login] or [Signup]
Login
Username:
Password:
[Signup]
[Recover Account]


Poll


You must be logged in to view polls



Torrent Details For "Kudiya Shehar Diyan Song Poster Boys Sunny Deol www.300mbhd.blogspot.in.mp4"

Kudiya Shehar Diyan Song Poster Boys Sunny Deol www.300mbhd.blogspot.in.mp4

Download this torrent | Magnet Download
Health:
Seeds: 0
Leechers: 5
Completed:
Last Checked: 22-09-2017 02:42:57
External Torrent
Update Stats
Download Magnet


Poster


Watch-Free-HD     Download

Details
Name:Kudiya Shehar Diyan Song Poster Boys Sunny Deol www.300mbhd.blogspot.in.mp4
Description:
General
Complete name               : C:\Users\ASHOK\Desktop\Kudiya Shehar Diyan Song _ Poster Boys _ Sunny Deol www.300mbhd.blogspot.in.mp4
Format                      : MPEG-4
Format profile              : Base Media
Codec ID                    : isom (isom/iso2/avc1/mp41)
File size                   : 103 MiB
Duration                    : 3 min 14 s
Overall bit rate            : 4 457 kb/s
Writing application         : Lavf56.40.100

Video
ID                          : 1
Format                      : AVC
Format/Info                 : Advanced Video Codec
Format profile              : [email protected]
Format settings, CABAC      : Yes
Format settings, ReFrames   : 3 frames
Codec ID                    : avc1
Codec ID/Info               : Advanced Video Coding
Duration                    : 3 min 14 s
Bit rate                    : 4 326 kb/s
Width                       : 1 920 pixels
Height                      : 1 080 pixels
Display aspect ratio        : 16:9
Frame rate mode             : Constant
Frame rate                  : 24.000 FPS
Color space                 : YUV
Chroma subsampling          : 4:2:0
Bit depth                   : 8 bits
Scan type                   : Progressive
Bits/(Pixel*Frame)          : 0.087
Stream size                 : 100 MiB (97%)
Color range                 : Limited
Color primaries             : BT.709
Transfer characteristics    : BT.709
Matrix coefficients         : BT.709

Audio
ID                          : 2
Format                      : AAC
Format/Info                 : Advanced Audio Codec
Format profile              : LC
Codec ID                    : 40
Duration                    : 3 min 14 s
Bit rate mode               : Constant
Bit rate                    : 126 kb/s
Channel(s)                  : 2 channels
Channel positions           : Front: L R
Sampling rate               : 44.1 kHz
Frame rate                  : 43.066 FPS (1024 spf)
Compression mode            : Lossy
Stream size                 : 2.92 MiB (3%)
Default                     : Yes
Alternate group             : 1
Category:Music > Videos
Lang:Hindi
Total Size:103.46 MB
Info Hash:e410ed7896133b8b99b7843a18e3eb074aee3240
Added By:akmeena
Date Added:21-09-2017 05:47:27
Views:838
Hits:119

Download Torrent

Ratings:Not Yet Rated (Log in to rate it)


Tracker:
udp://tracker.openbittorrent.com:80/announce


File List: 


Comments

No comments still posted

Powered by 10 Hamsters v2-svn -|- Page Generated In 0.003833 secs.
-|- RSS FEED
Theme By: Nikkbu