75% Agents of S.H.I.E.L.D. | Mairimashita! Iruma-kun 27 | Crunchyroll
[Login] or [Signup]
Login
Username:
Password:
[Signup]
[Recover Account]


Poll


You must be logged in to view polls



Torrent Details For "The.Last.Face.2016.1080p.WEB-DL.DD5.1.H264-FGT-[HDSector]"

The.Last.Face.2016.1080p.WEB-DL.DD5.1.H264-FGT-[HDSector]

Download this torrent | Magnet Download
Health:
Seeds: 36
Leechers: 353
Completed: 37 
Last Checked: 11-05-2017 14:43:34
External Torrent
Update Stats
Download Magnet


Poster


iMDB
Imdb Picture Title: The Last Face
Year: 2016
Runtime: 130 minutes
Votes: 668
Rating: 3.5/10
Language: English
Country: USA
All Genres: Drama
Plot Outline: A director (Charlize Theron) of an international aid agency in Africa meets a relief aid doctor (Javier Bardem) amidst a political/social revolution, and together face tough choices ...
Director: Sean Penn
Writing By: Erin Dignam,
Produced By: Bill Gerber,Andrew Golov,Jon Kuyper,Matt Palmieri,Bill Pohlad,Teri-Lin Robertson,Janine van Assen,
Music: Hans Zimmer
Plot:

A director (Charlize Theron) of an international aid agency in Africa meets a relief aid doctor (Javier Bardem) amidst a political/social revolution, and together face tough choices surrounding humanitarianism and life through civil unrest.


Cast:
Charlize Theron as Wren
Javier Bardem as Miguel Leon
Adèle Exarchopoulos as Ellen
Jared Harris as Dr. John Farber
Jean Reno as Dr. Love
Denise Newman as Sarie
Oscar Best as Doctor Brown
Zubin Cooper as Moussa
Sebelethu Bonkolo as Sam
Hopper Penn as Billy Boggs


Watch-Free-HD     Download

Details
Name:The.Last.Face.2016.1080p.WEB-DL.DD5.1.H264-FGT-[HDSector]
Description:




Video
ID                                       : 1
Format                                   : AVC
Format/Info                              : Advanced Video Codec
Format profile                           : [email protected]
Format settings, CABAC                   : Yes
Format settings, ReFrames                : 5 frames
Codec ID                                 : V_MPEG4/ISO/AVC
Duration                                 : 2h 10mn
Bit rate                                 : 4 441 Kbps
Width                                    : 1 908 pixels
Height                                   : 796 pixels
Display aspect ratio                     : 2.40:1
Frame rate mode                          : Constant
Frame rate                               : 24.000 fps
Color space                              : YUV
Chroma subsampling                       : 4:2:0
Bit depth                                : 8 bits
Scan type                                : Progressive
Bits/(Pixel*Frame)                       : 0.122
Stream size                              : 4.05 GiB (90%)
Title                                    : The.Last.Face.2016.1080p.WEB-DL.DD5.1.H264-FGT
Language                                 : English
Default                                  : Yes
Forced                                   : No
Color range                              : Limited
Color primaries                          : BT.709
Transfer characteristics                 : BT.709
Matrix coefficients                      : BT.709

Audio
ID                                       : 2
Format                                   : AC-3
Format/Info                              : Audio Coding 3
Mode extension                           : CM (complete main)
Format settings, Endianness              : Big
Codec ID                                 : A_AC3
Duration                                 : 2h 10mn
Bit rate mode                            : Constant
Bit rate                                 : 384 Kbps
Channel(s)                               : 6 channels
Channel positions                        : Front: L C R, Side: L R, LFE
Sampling rate                            : 48.0 KHz
Frame rate                               : 31.250 fps (1536 spf)
Compression mode                         : Lossy
Stream size                              : 359 MiB (8%)
Title                                    : The.Last.Face.2016.1080p.WEB-DL.DD5.1.H264-FGT
Language                                 : English
Default                                  : Yes
Forced                                   : No


 http://www.dnslist.net/


         
Category:Movies > WEB-HD
Lang:English  English
Total Size:4.49 GB
Info Hash:90ddf3d0d0f0af601096de50c5c6fe9bb9620aeb
Added By:HDSector
Date Added:11-05-2017 14:43:34
Views:305
Hits:49

Download Torrent

Ratings:Not Yet Rated (Log in to rate it)


Tracker:
http://tracker.trackerfix.com:80/announce


File List: 


Comments

No comments still posted

Powered by 10 Hamsters v2-svn -|- Page Generated In 0.338349 secs.
-|- RSS FEED
Theme By: Nikkbu