Extreme Makeover: Weight Loss Edition | Collateral HDTV 720p AC3 5.1 | Jason Martin
[Login] or [Signup]
Login
Username:
Password:
[Signup]
[Recover Account]


Poll


You must be logged in to view polls



Torrent Details For "Scooby-Doo.Abracadabra.Doo.2010.1080p.WEB-DL.DD5.1-FGT-[HDSector]"

Scooby-Doo.Abracadabra.Doo.2010.1080p.WEB-DL.DD5.1-FGT-[HDSector]

Download this torrent | Magnet Download
Health:
Seeds: 3
Leechers: 8
Completed: 632 
Last Checked: 20-09-2017 02:38:41
External Torrent
Update Stats
Download Magnet


Poster


iMDB
Imdb Picture Title: Scooby-Doo! Abracadabra-Doo
Year: 2010
Runtime: 76 minutes
Votes: 1024
Rating: 7.2/10
Language: English
Country: USA
All Genres: Animation, Family, Mystery
Plot Outline: The gang goes on a trip to check on Velma's younger sister, Madelyn. She's been studying stage magic at the Whirlen Merlin Magic Academy, where apparently there have been sightings of a giant griffin. The gang decides to investigate.
Director: Spike Brandt
Tony Cervone
Writing By: Alan Burnett,Paul Dini,Misty Lee,Alan Burnett,Joseph Barbera,William Hanna,
Produced By: Spike Brandt,Alan Burnett,Tony Cervone,Sam Register,Linda Steiner,
Music: Robert J. Kral
Plot:

The gang goes on a trip to check on Velma's younger sister, Madelyn. She's been studying stage magic at the Whirlen Merlin Magic Academy, where apparently there have been sightings of a giant griffin. The gang decides to investigate.

- Written by Seth LaRue
Cast:
Frank Welker as Scooby-Doo / Fred
Matthew Lillard as Shaggy
Grey DeLisle as Daphne
Mindy Cohn as Velma Dinkley
Dave Attell as The G.P.S.
Danica McKellar as Madelyn Dinkley
Dee Bradley Baker as Sherman
Olivia Hack as Treena
Melique Berger as The Angry Mom
Diane Delano as Ms. Alma Rumblebuns


Watch-Free-HD     Download

Details
Name:Scooby-Doo.Abracadabra.Doo.2010.1080p.WEB-DL.DD5.1-FGT-[HDSector]
Description:


Video
ID                                       : 1
Format                                   : AVC
Format/Info                              : Advanced Video Codec
Format profile                           : [email protected]
Format settings, CABAC                   : Yes
Format settings, ReFrames                : 4 frames
Codec ID                                 : V_MPEG4/ISO/AVC
Duration                                 : 1h 16mn
Bit rate                                 : 5 117 Kbps
Width                                    : 1 912 pixels
Height                                   : 1 072 pixels
Display aspect ratio                     : 16:9
Frame rate mode                          : Constant
Frame rate                               : 23.976 fps
Color space                              : YUV
Chroma subsampling                       : 4:2:0
Bit depth                                : 8 bits
Scan type                                : Progressive
Bits/(Pixel*Frame)                       : 0.104
Stream size                              : 2.73 GiB (91%)
Title                                    : Scooby-Doo.Abracadabra.Doo.2010.1080p.WEB-DL.DD5.1.H264-FGT
Language                                 : English
Default                                  : Yes
Forced                                   : No
Color range                              : Limited
Color primaries                          : BT.709
Transfer characteristics                 : BT.709
Matrix coefficients                      : BT.709

Audio
ID                                       : 2
Format                                   : AC-3
Format/Info                              : Audio Coding 3
Mode extension                           : CM (complete main)
Format settings, Endianness              : Big
Codec ID                                 : A_AC3
Duration                                 : 1h 16mn
Bit rate mode                            : Constant
Bit rate                                 : 384 Kbps
Channel(s)                               : 6 channels
Channel positions                        : Front: L C R, Side: L R, LFE
Sampling rate                            : 48.0 KHz
Frame rate                               : 31.250 fps (1536 spf)
Compression mode                         : Lossy
Stream size                              : 210 MiB (7%)
Title                                    : Scooby-Doo.Abracadabra.Doo.2010.1080p.WEB-DL.DD5.1.H264-FGT
Language                                 : English
Default                                  : No
Forced                                   : No

Text
ID                                       : 3
Format                                   : UTF-8
Codec ID                                 : S_TEXT/UTF8
Codec ID/Info                            : UTF-8 Plain Text
Language                                 : English
Default                                  : Yes
Forced                                   : No


           
Category:Movies > WEB-HD
Lang:English  English
Total Size:3.00 GB
Info Hash:e93b9e33584050acb57f288530e22456375773ad
Added By:HDSector
Date Added:08-05-2017 15:00:57
Views:287
Hits:50

Download Torrent

Ratings:Not Yet Rated (Log in to rate it)


Tracker:
http://tracker.trackerfix.com:80/announce


File List: 


Comments

No comments still posted

Powered by 10 Hamsters v2-svn -|- Page Generated In 0.453763 secs.
-|- RSS FEED
Theme By: Nikkbu