[Login] or [Signup]
Login
Username:
Password:
[Signup]
[Recover Account]


Poll


You must be logged in to view polls



Torrent Details For "Batman and Harley Quinn 2017 1080p BluRay AAC 5.1 -Hon3y"

Batman and Harley Quinn 2017 1080p BluRay AAC 5.1 -Hon3y

Download this torrent | Magnet Download
Health:
Seeds: 0
Leechers: 0
Completed:
Last Checked: 08-10-2018 16:01:24
External Torrent
Update Stats
Download Magnet


Poster


Watch-Free-HD     Download

Details
Name:Batman and Harley Quinn 2017 1080p BluRay AAC 5.1 -Hon3y
Description:
Batman and Harley Quinn 2017 1080p BluRay AAC 5.1 - Hon3y

Format                      : Matroska
Format version              : Version 4 / Version 2
File size                   : 1.73 GiB
Duration                    : 1 h 14 min
Overall bit rate            : 3 334 kb/s
Movie name                  : Batman.and.Harley.Quinn.2017-Hon3y


Video
ID                          : 1
Format                      : AVC
Format/Info                 : Advanced Video Codec
Format profile              : [email protected]
Format settings, CABAC      : Yes
Format settings, RefFrames  : 4 frames
Codec ID                    : V_MPEG4/ISO/AVC
Duration                    : 1 h 14 min
Bit rate                    : 3 000 kb/s
Width                       : 1 920 pixels
Height                      : 1 080 pixels
Display aspect ratio        : 16:9
Frame rate mode             : Constant
Frame rate                  : 23.976 (24000/1001) FPS


Audio
ID                          : 2
Format                      : AAC
Format/Info                 : Advanced Audio Codec
Format profile              : LC
Codec ID                    : A_AAC
Duration                    : 1 h 14 min
Bit rate                    : 320 kb/s
Channel(s)                  : 6 channels
Channel positions           : Front: L C R, Side: L R, LFE
Sampling rate               : 48.0 kHz
Frame rate                  : 46.875 FPS (1024 SPF)
Compression mode            : Lossy
Delay relative to video     : -21 ms
Stream size                 : 170 MiB (10%)
Title                       : Surround
Language                    : English
Default                     : Yes
Forced                      : No

Text
ID                          : 3
Format                      : PGS
Muxing mode                 : zlib
Codec ID                    : S_HDMV/PGS
Codec ID/Info               : Picture based subtitle format used on BDs/HD-DVDs
Duration                    : 1 h 13 min
Bit rate                    : 38.8 kb/s
Count of elements           : 2092
Stream size                 : 20.5 MiB (1%)
Title                       : English-PGS
Language                    : English
Default                     : Yes
Forced                      : No

Menu
00:00:00.000                : en:Chapter 01
00:10:05.563                : en:Chapter 02
00:20:53.085                : en:Chapter 03
00:30:34.916                : en:Chapter 04
00:38:26.012                : en:Chapter 05
00:47:45.654                : en:Chapter 06
00:57:53.636                : en:Chapter 07
01:08:19.386                : en:Chapter 08

       
Category:Movies > 1080P Bluray
Lang:English  English
Total Size:1.73 GB
Info Hash:d61e0654aecdb68db0c6e278d21aa6269eb8a710
Added By:Hon3y
Date Added:22-08-2017 16:41:31
Views:366
Hits:66

Download Torrent

Ratings:Not Yet Rated (Log in to rate it)


Tracker:
http://ipv4.tracker.harry.lu/announce

This Torrent also has backup trackers
URLSeedersLeechersCompleted
http://ipv4.tracker.harry.lu/announce2120
http://ipv4.tracker.harry.lu:80/announce2120
http://opentracker-milanesi.rhcloud.com/announce000
http://t.nyaatracker.com/announce010
http://tracker.devil-torrents.pl:80/announce000
http://tracker.devil-torrents.pl/announce000
http://open.kickasstracker.com/announce010
http://opentracker-milanesi.rhcloud.com:80/announce1110
http://open.kickasstracker.com:443/announce010
http://opentracker-milanesi.rhcloud.com:443/announce1120
http://t.nyaatracker.com:80/announce010


File List: 


Comments

No comments still posted

Powered by 10 Hamsters v2-svn -|- Page Generated In 0.280749 secs.
-|- RSS FEED
Theme By: Nikkbu
Latzhosen | Gigi Spice Videos | Meisten gebote